Ссылка на приватное зеркало всего за 1$. Внимание количество ограничено!!!

iTunes

iTunes

iTunes

1

iTunes

iTunes

iTunes

iTunes

iTunes

30
pack

Новость дня

ВАЖНО

!!Акция!!

Alien_RageХит недели

RePack

Resident Evil 21

ИГРА 18+

pack

RePack

jed

!!Акция!!

Alien_Rage

RePack

fifa19

RePack

Assassins Creed: Odyssey

RePack

NEED FOR SPEED™ PAYBACK

4 сезон

9 сезон

Бесстыжие 9 сезон

Все сериалы

все сериалы на PB.wtf

RePack

FAR CRY 5
  

Дорогой папа (Михаил Расходников) [2019, комедия, семейный, WEB-DL 1080p] [iTunes] pb.wtf

Дорогой папа через торрент pb.wtf

Раздают: 2 [ 0 KB/s ]
Размер: 3.38 GB | Добавлен: 7 мес. назад | Торрент скачан:432 раза
Скачать  

12-10-2019 07:15 Дорогой папа Скачать торрент  

Дорогой папа«Богатый тоже плачет»
Год выпуска: 2019
Страна: Россия
Жанр: комедия, семейный
Продолжительность: 01:27:04
Перевод: Не требуется | iTunes
Субтитры: отсутствуют

Режиссер: Михаил Расходников



В ролях: Владимир Вдовиченков, Валентина Ляпина, Владимир Сычев, Ирина Пегова, Николай Шрайбер, Иева Андреевайте, Игорь Ясулович, Юлия Сулес, Варвара Малкова, Андрей Пермяков

Описание: Владелец ведущей торговой сети Вадим Дюмин привык добиваться своего любыми способами. Обаяние и продуманный план помогают ему найти китайского инвестора, готового стать партнером в компании Вадима, оформленной когда-то на его маму. Вот только, оказалось, она завещала акции своей внучке, его дочери... Которую Вадим бросил, когда ей было 2 года.

Теперь Вадим должен поехать в свой родной маленький город, найти бывшую жену и дочь и убедить их отказаться от наследства на сумму... где-то полмиллиарда долларов. Вадим уверен, что его обаяние и манипуляции сработают и здесь, но в мире дочери его методы не работают, и слово "дорогой" здесь совсем не про деньги.

«Богатый тоже плачет»

Качество: WEB-DL 1080p
Формат: MKV

Видео: MPEG4 AVC Video, H264, 2.40:1, 1920x800, 24 fps, 5176 kbps
Аудио: Russian (AC3, 6 ch, 384 kbps, 16 bits, 48.0 KHz) - оригинал (iTunes)
скриншот  скриншот  скриншот  скриншот  скриншот  

General
Unique ID : 193979933455381108027471167423148523441 (0x91EF2D1E67B9B0F29C4693A52E8CFFB1)
Complete name : D:Dorogoy.papa.2019.WEB-DL.(1080p).Getty.mkv
Format : Matroska
Format version : Version 4 / Version 2
File size : 3.38 GiB
Duration : 1 h 27 min
Overall bit rate : 5 562 kb/s
Movie name : Dorogoy.papa.2019.WEB-DL.(1080p).Getty
Encoded date : UTC 2019-10-11 23:46:59
Writing application : mkvmerge v7.8.0 ('River Man') 32bit built on Mar 27 2015 16:18:02
Writing library : libebml v1.3.1 + libmatroska v1.4.2

Video
ID : 1
Format : AVC
Format/Info : Advanced Video Codec
Format profile : High@L4
Format settings : CABAC / 4 Ref Frames
Format settings, CABAC : Yes
Format settings, ReFrames : 4 frames
Codec ID : V_MPEG4/ISO/AVC
Duration : 1 h 27 min
Bit rate : 5 176 kb/s
Width : 1 920 pixels
Height : 800 pixels
Display aspect ratio : 2.40:1
Frame rate mode : Constant
Frame rate : 24.000 FPS
Color space : YUV
Chroma subsampling : 4:2:0
Bit depth : 8 bits
Scan type : Progressive
Bits/(Pixel*Frame) : 0.140
Stream size : 3.15 GiB (93%)
Default : Yes
Forced : No

Audio
ID : 2
Format : AC-3
Format/Info : Audio Coding 3
Codec ID : A_AC3
Duration : 1 h 27 min
Bit rate mode : Constant
Bit rate : 384 kb/s
Channel(s) : 6 channels
Channel positions : Front: L C R, Side: L R, LFE
Sampling rate : 48.0 kHz
Frame rate : 31.250 FPS (1536 SPF)
Bit depth : 16 bits
Compression mode : Lossy
Stream size : 239 MiB (7%)
Service kind : Complete Main
Default : Yes
Forced : No

pb.wtf



Скачать Дорогой папа через торрент https://d.radikal.ru/d16/1910/b9/63f93b1d6a27.jpg Скачать фильм Дорогой папа через торрент бесплантно в хорошем качестве Описание: Владелец ведущей торговой сети Вадим Дюмин привык добиваться своего любыми способами. Обаяние и продуманный план помогают ему ... 10 10 20
Торрент: Зарегистрирован [2019-10-12 07:15] · скачан: 432 раз
Статус: √ проверено
Размер: 3.38 GB
Как cкачать? Как скачать Дорогой папа через торрент | qTorrent

% Раздел Тема Автор DL S | L
Наши новые фильмы 2018-2019 [ 708 MB ] Дорогой папа [2019 WEB-DLRip Русский]() coc900 Скачать
3 | 0
Наши новые фильмы 2018-2019 [ 1.37 GB ] Дорогой папа [2019 WEB-DLRip] bober100 Скачать
4 | 0
Наши фильмы (HD, WEB-DL 720p, 1080p) [ 1.82 GB ] Дорогой папа [2019 WEB-DL 720p] bober100 Скачать
2 | 0
Наши новые фильмы 2018-2019 [ 1.4 GB ] Дорогой папа [2019 WEB-DLRip-AVC] bober100 Скачать
2 | 0

28-11-2019 20:33  

Отключить всю рекламу на сайте

08-11-2019 17:17 Дорогой папа Скачать торрент  

Добрый, лёгкий и приятный фильм про семейные ценности.pb.wtf



    Дорогой пользователь! Огромная просьба, поблагодарите релизера, оцените раздачу и оставьте свои комментарий, если Вы скачали Дорогой папа через торрент бесплатно! Внесите свою лепту в развитие PiratBit!
    Комментировать посты могут только пользователи прошедшие не сложную регистрацию
    Показать сообщения:    

    Дорогой папа через торрент
    Скачать бесплатно Дорогой папа
    Дорогой папа скачать торрент
    Дорогой папа смотреть онлайн
    Cкачать фильм Дорогой папа бесплатно
    Дорогой папа скачать торрент в хорошем качестве
    Дорогой папа смотреть онлайн бесплатно в хорошем качестве


    Вы не можете начинать темы
    Вы не можете отвечать на сообщения
    Вы не можете редактировать свои сообщения
    Вы не можете удалять свои сообщения
    Вы не можете голосовать в опросах
    Вы не можете прикреплять файлы к сообщениям
    Вы можете скачивать файлы