Ссылка на приватное зеркало нашего сайта всего за 1$. Внимание количество ограничено!!!

2 сезон

iTunes

1 сезон

1

iTunes

iTunes

iTunes

1 сезон

RePack

30

ИГРА 18+

pack

ВАЖНО

!!Акция!!

Alien_RageХит недели

RePack

MK11
pack

Забери бонус

RePack

jed

!!Акция!!

Alien_Rage

RePack

fifa19

RePack

Assassins Creed: Odyssey

RePack

NEED FOR SPEED™ PAYBACK

4 сезон

9 сезон

Бесстыжие 9 сезон

Все сериалы

все сериалы на PB.wtf

RePack

FAR CRY 5
  

Господин Никто / Мистер Никто / Mr. Nobody (Жако Ван Дормель / Jaco van Dormael) [2009, Канада, Франция, фантастика, фэнтези, мелодрама, драма, BDRip 720p] (Полная версия / Extended cut) pb.wtf

Господин Никто через торрент pb.wtf

Размер: 7.37 GB | Добавлен: 9 лет 9 мес. назад | Торрент скачан:346 раз
Скачать  

19-01-2011 18:17 Господин Никто Скачать торрент  


Уважительная просьба всем кто,собирается качать или уже качает эту раздачу,когда раздающих меньше 1-ого на протяжение 24 часов
жать вот эту кнопку
==> <==,
а не ждать святого духа,который встанет на раздачу.



«Всё возможно, пока не сделан выбор»"Everything is possible until a selection is made" Год выхода:2009
Выпущено:
Жанр: фантастика, фэнтези, мелодрама, драма
Продолжительность: 02:35:36
Перевод: Профессиональный (многоголосый закадровый) Лицензия
Режиссер:Жако Ван Дормель / Jaco van Dormael
В Ролях:
Джаред Лето, Дайан Крюгер, Сара Полли, Лин Дэн Пэм, Риз Айфэнс, Наташа Литтл, Тоби Регбо, Джуно Темпл, Клер Стоун, Томас Бирн


Описание:
Проснувшийся немощным стариком Немо Никто оказывается последним смертным в гротескном будущем. Все люди уже давно бессмертны и с удовольствием наблюдают за телешоу, где главная звезда - дряхлый и безумный старик Немо, доживающий свои последние дни. Накануне конца к нему приходит журналист, и Немо рассказывает ему свою историю перескакивая из одной жизни в другие, параллельные, несколько раз за рассказ успев умереть.

Доп. информация:
Качество: BDRip 720p
Формат: MKV
Видео кодек: H.264
Аудио кодек: AC3
Размер:7,37 ГБ (7 916 735 522 байт)
Видео: L4.1, x.264, fps 24.000, 1280x546, 4900 кбит/с
Аудио#1:RU:AC3 5.1, 48 KHz, 448 kbps |многоголосый (закадровый)|
Аудио#2: EN:DTS 5.1, 48 KHz, 1536 kbps |Оригинал|
Субтитры:


x264 [info]: frame I:1631 Avg QP:14.72 size:115901
x264 [info]: frame P:51384 Avg QP:17.89 size: 45550
x264 [info]: frame B:171048 Avg QP:19.84 size: 18640
x264 [info]: consecutive B-frames: 1.5% 2.5% 8.1% 25.0% 28.1% 34.8%
[video width=640 height=385]http://www.youtube.com/v/SvGcRiHdCw8?fs=1&amp;hl=ru_RU

General
Complete name : L:\HD-Films\Mr.nobody.Extended.2009.BluRay.720p.x264-AC3.DTS.HDv0T.mkv
Format : Matroska
File size : 7.37 GiB
Duration : 2h 35mn
Overall bit rate : 6 784 Kbps
Movie name : HDv 0day Team
Encoded date : UTC 2010-12-20 16:47:52
Writing application : mkvmerge v3.4.0 ('Rapunzel') built on May 15 2010 09:38:20
Writing library : libebml v0.8.0 + libmatroska v0.9.0
Video
ID : 1
Format : AVC
Format/Info : Advanced Video Codec
Format profile : High@L4.1
Format settings, CABAC : Yes
Format settings, ReFrames : 8 frames
Codec ID : V_MPEG4/ISO/AVC
Duration : 2h 35mn
Bit rate : 4 900 Kbps
Width : 1 280 pixels
Height : 546 pixels
Display aspect ratio : 2.35:1
Frame rate : 24.000 fps
Color space : YUV
Chroma subsampling : 4:2:0
Bit depth : 8 bits
Scan type : Progressive
Bits/(Pixel*Frame) : 0.292
Stream size : 5.10 GiB (69%)
Title : Mr.Nobody.2009.BluRay.720p.x264-AngeL
Writing library : x264 core 110 r1804 e89c4cf
Encoding settings : cabac=1 / ref=8 / deblock=1:-3:-3 / analyse=0x3:0x113 / me=umh / subme=10 / psy=1 / psy_rd=0.90:0.00 / mixed_ref=1 / me_range=32 / chroma_me=1 / trellis=2 / 8x8dct=1 / cqm=0 / deadzone=21,11 / fast_pskip=0 / chroma_qp_offset=-2 / threads=3 / sliced_threads=0 / nr=0 / decimate=1 / interlaced=0 / constrained_intra=0 / bframes=5 / b_pyramid=2 / b_adapt=2 / b_bias=0 / direct=3 / weightb=1 / open_gop=0 / weightp=2 / keyint=250 / keyint_min=23 / scenecut=40 / intra_refresh=0 / rc_lookahead=40 / rc=2pass / mbtree=1 / bitrate=4900 / ratetol=1.0 / qcomp=0.60 / qpmin=0 / qpmax=51 / qpstep=4 / cplxblur=20.0 / qblur=0.5 / ip_ratio=1.40 / aq=1:0.80
Language : English
Audio #1
ID : 2
Format : AC-3
Format/Info : Audio Coding 3
Mode extension : CM (complete main)
Codec ID : A_AC3
Duration : 2h 35mn
Bit rate mode : Constant
Bit rate : 448 Kbps
Channel(s) : 6 channels
Channel positions : Front: L C R, Side: L R, LFE
Sampling rate : 48.0 KHz
Bit depth : 16 bits
Compression mode : Lossy
Stream size : 499 MiB (7%)
Title : Лицензия + Вставки Buzlyator
Language : Russian
Audio #2
ID : 3
Format : DTS
Format/Info : Digital Theater Systems
Codec ID : A_DTS
Duration : 2h 35mn
Bit rate mode : Constant
Bit rate : 1 510 Kbps
Channel(s) : 6 channels
Channel positions : Front: L C R, Side: L R, LFE
Sampling rate : 48.0 KHz
Bit depth : 16 bits
Compression mode : Lossy
Stream size : 1.64 GiB (22%)
Title : DTS Core
Language : English
Text #1
ID : 4
Format : UTF-8
Codec ID : S_TEXT/UTF8
Codec ID/Info : UTF-8 Plain Text
Title : Voronine
Language : Russian
Text #2
ID : 5
Format : UTF-8
Codec ID : S_TEXT/UTF8
Codec ID/Info : UTF-8 Plain Text
Language : English
Menu
00:00:00.000 : en:The Last Mortal
00:12:09.791 : en:Origins
00:20:46.250 : en:Premonitions
00:30:49.958 : en:Separation
00:40:18.416 : en:Anna
00:49:55.500 : en:Elise
01:01:53.000 : en:Jane
01:13:34.500 : en:Promise
01:22:29.625 : en:Life with Elise
01:32:50.333 : en:Waiting for Anna
01:42:24.291 : en:Innate Fears
01:52:39.833 : en:Mr. Jones
02:02:53.333 : en:Second Chance
02:10:27.166 : en:The One Who Does Not Exist
02:19:22.958 : en:In A Multitude of Possible
02:29:09.291 : en:Credits

* Голос 120-летнего старика также принадлежит Джареду Лето без использования компьютерных технологий.
* Роль Анны могла достаться Еве Грин.
* Саундтрек к фильму стал последней работой в кино известного бельгийского музыканта и композитора Пьера Ван Дормеля (родного брата режиссёра), скончавшегося от рака 3 сентября 2008 года.
* В роли ангелов в одной из сцен снялись дочери Ван Дормеля.
* Этап подготовки к съёмке длился год, этап пост-продакшена занял пятнадцать месяцев.
* В фильме представлена сцена камео режиссёра — безработный бразилец, варивший куриное яйцо.
* «Немо» в переводе с латинского означает «Никто». Этим именем Одиссей представился Циклопу.

© Оформление by .::Sergey::. pb.wtf



Скачать Господин Никто через торрент http://piratbit.in.ua/d7c77d24e19db5b3cd553328ece549da.jpg Скачать фильм Господин Никто через торрент бесплантно в хорошем качестве Описание: Проснувшийся немощным стариком Немо Никто оказывается последним смертным в гротескном будущем. Все люди уже давно бессмертны и с ... 10 10 5
Info! Золотая раздача, скачанное не засчитывается.
Торрент: Зарегистрирован [2011-01-19 18:17] · скачан: 346 раз
Статус: √ проверено
Размер: 7.37 GB
Как cкачать? Как скачать Господин Никто через торрент | qTorrent



Последний раз редактировалось: .::Sergey::. (2011-04-27 16:23), всего редактировалось 3 раз(а)

28-11-2019 20:33  

Отключить всю рекламу на сайте

19-01-2011 20:02 Господин Никто Скачать торрент  

фильм со смыслом!pb.wtf



07-02-2011 04:28 Господин Никто Скачать торрент  

ruslan3010 писал(а):

фильм со смыслом!

Согласен, посмотреть можно! :ad:pb.wtf



    Дорогой пользователь! Огромная просьба, поблагодарите релизера, оцените раздачу и оставьте свои комментарий, если Вы скачали Господин Никто через торрент бесплатно! Внесите свою лепту в развитие PiratBit!
    Комментировать посты могут только пользователи прошедшие не сложную регистрацию
    Показать сообщения:    

    Господин Никто через торрент
    Скачать бесплатно Господин Никто
    Господин Никто скачать торрент
    Господин Никто смотреть онлайн
    Cкачать фильм Господин Никто бесплатно
    Господин Никто скачать торрент в хорошем качестве
    Господин Никто смотреть онлайн бесплатно в хорошем качестве


    Вы не можете начинать темы
    Вы не можете отвечать на сообщения
    Вы не можете редактировать свои сообщения
    Вы не можете удалять свои сообщения
    Вы не можете голосовать в опросах
    Вы не можете прикреплять файлы к сообщениям
    Вы можете скачивать файлы