новый адрес
Мега распродажа FORZA HORIZON 4 ULTIMATE+ВСЕ DLC+ОНЛАЙН всего за 499р. 349 руб. (супер цена). Внимание количество ограничено!!!

iTunes

1+1

iTunes

мы

iTunes

1

iTunes

Чернобыль

iTunes

Ральф против интернета

Лицензия

ПШазам

Лицензия

Игра престолов

Лицензия

30
pack

ВАЖНО

!!Акция!!

Alien_RageХит недели

RePack

Resident Evil 21

ИГРА 18+

pack

RePack

Metro:Exodus

!!Акция!!

Alien_Rage

RePack

fifa19

RePack

Assassins Creed: Odyssey

RePack

NEED FOR SPEED™ PAYBACK

3 сезон

9 сезон

Бесстыжие 9 сезон

Все сериалы

все сериалы на PB.wtf

RePack

FAR CRY 5
Ребята, катастрофически не хватает 1900р. для оплаты серверов за Октябрь (всвязи с блокировками трафик упал в 3 раза), 1-2р., выручайте.
  

Дорогой папа (Михаил Расходников) [2019 г., комедия, семейный, WEB-DLRip, Не требуется Русский](iTunes) pb.wtf

Дорогой папа через торрент pb.wtf

Раздают: 9 [ 0 KB/s ]
Размер: 708 MB | Добавлен: 1 мес. 5 д. назад | Торрент скачан:163 раза
Скачать  

13-10-2019 18:42 Дорогой папа Скачать торрент  

Дорогой папаГод выпуска: 2019
Страна: Россия / PBB,Renovatio ent.
Жанр: комедия, семейный
Продолжительность: 01:27:09
Перевод: Не требуется Русский (iTunes)

Режиссер: Михаил Расходников

rating
В ролях: Владимир Вдовиченков, Валентина Ляпина, Владимир Сычев, Ирина Пегова, Николай Шрайбер, Иева Андреевайте, Игорь Ясулович, Юлия Сулес, Варвара Малкова, Андрей Пермяков

Описание:Владелец ведущей торговой сети Вадим Дюмин привык добиваться своего любыми способами. Обаяние и продуманный план помогают ему найти китайского инвестора, готового стать партнером в компании Вадима, оформленной когда-то на его маму. Вот только, оказалось, она завещала акции своей внучке, его дочери... Которую Вадим бросил, когда ей было 2 года.

Теперь Вадим должен поехать в свой родной маленький город, найти бывшую жену и дочь и убедить их отказаться от наследства на сумму... где-то полмиллиарда долларов. Вадим уверен, что его обаяние и манипуляции сработают и здесь, но в мире дочери его методы не работают, и слово "дорогой" здесь совсем не про деньги.

Качество: WEB-DLRip
Формат: AVI
Видео кодек: DivX
Аудио кодек: MP3
Видео: 672x280 (2.40:1), 23.976 fps, DivX Codec 4.x ~998 kbps avg, 0.22 bit/pixel
Аудио: 48 kHz, MPEG Layer 3, 2 ch, ~128.00 kbps avg
скриншот   скриншот   скриншот   скриншот   скриншот   скриншот   скриншот   скриншот  

Общее
Полное имя : F:\ФИЛЬМЫ\Дорогой папа.2019.WEB-DLRip.avi
Формат : AVI
Формат/Информация : Audio Video Interleave
Размер файла : 708 Мбайт
Продолжительность : 1 ч. 27 м.
Общий поток : 1136 Кбит/сек
Программа кодирования : VirtualDubMod 1.5.10.3 | www.virtualdub-fr.org || (build 2550/release)
Библиотека кодирования : VirtualDubMod build 2550/release

Видео
Идентификатор : 0
Формат : MPEG-4 Visual
Профиль формата : Advanced Simple@L5
Настройки формата : BVOP3 / GMC3 / QPel
Параметр BVOP формата : 3
Параметр QPel формата : Да
Параметр GMC формата : 3 точки перехода
Параметр матрицы формата : Default (MPEG)
Идентификатор кодека : DIVX
Идентификатор кодека/Информация : Project Mayo
Идентификатор кодека/Подсказка : DivX 4
Продолжительность : 1 ч. 27 м.
Битрейт : 998 Кбит/сек
Ширина : 672 пикселя
Высота : 280 пикселей
Соотношение сторон : 2,40:1
Частота кадров : 23,976 (24000/1001) кадра/сек
Цветовое пространство : YUV
Субдискретизация насыщенности : 4:2:0
Битовая глубина : 8 бит
Тип развёртки : Прогрессивная
Метод сжатия : С потерями
Бит/(Пиксели*Кадры) : 0.221
Размер потока : 622 Мбайт (88%)
Библиотека кодирования : XviD 1.2.1 (UTC 2008-12-04)

Аудио
Идентификатор : 1
Формат : MPEG Audio
Версия формата : Version 1
Профиль формата : Layer 3
Настройки формата : Joint stereo
Идентификатор кодека : 55
Идентификатор кодека/Подсказка : MP3
Продолжительность : 1 ч. 27 м.
Вид битрейта : Постоянный
Битрейт : 128 Кбит/сек
Каналы : 2 канала
Частота : 48,0 КГц
Частота кадров : 41,667 кадра/сек (1152 SPF)
Метод сжатия : С потерями
Размер потока : 79,8 Мбайт (11%)
Выравнивание : Соединение по промежуткам
Продолжительность промежутка : 42 мс. (1,00 видеокадр)
Время предзагрузки промежутка : 504 мс.
Библиотека кодирования : LAME3.99r
Настройки программы : -m j -V 4 -q 2 -lowpass 17 -b 128

pb.wtf



Скачать Дорогой папа через торрент http://pic1.kartinco.top/images/12/h5qap.jpg Скачать фильм Дорогой папа через торрент бесплантно в хорошем качестве Описание:Владелец ведущей торговой сети Вадим Дюмин привык добиваться своего любыми способами. Обаяние и продуманный план помогают ему ... 10 10 5
Info! Золотая раздача, скачанное не засчитывается.
Торрент: Зарегистрирован [2019-10-13 18:42] · скачан: 163 раз
Статус: √ проверено
Размер: 708 MB
Как cкачать? Как скачать Дорогой папа через торрент | qTorrent

% Раздел Тема Автор DL S | L
Наши фильмы (HD, WEB-DL 720p, 1080p) [ 3.38 GB ] Дорогой папа [2019 WEB-DL 1080p] bober100 Скачать
16 | 0
Наши новые фильмы 2018-2019 [ 1.37 GB ] Дорогой папа [2019 WEB-DLRip] bober100 Скачать
16 | 1
Наши фильмы (HD, WEB-DL 720p, 1080p) [ 1.82 GB ] Дорогой папа [2019 WEB-DL 720p] bober100 Скачать
3 | 0
Наши новые фильмы 2018-2019 [ 1.4 GB ] Дорогой папа [2019 WEB-DLRip-AVC] bober100 Скачать
6 | 0


>> Регистрируемся здесь <<






Отзывы и комментарии о схеме читаем и пишем здесь: ---> Отзывы и комментарии о схеме

Новые благодарочки в телеграм довольных пользователей:
скриншот   скриншот   скриншот   скриншот   скриншот
    Дорогой пользователь! Огромная просьба, поблагодарите релизера, оцените раздачу и оставьте свои комментарий, если Вы скачали Дорогой папа через торрент бесплатно! Внесите свою лепту в развитие PiratBit!
    Комментировать посты могут только пользователи прошедшие не сложную регистрацию
    Показать сообщения:    

    Дорогой папа через торрент
    Скачать бесплатно Дорогой папа
    Дорогой папа скачать торрент
    Дорогой папа смотреть онлайн
    Cкачать фильм Дорогой папа бесплатно
    Дорогой папа скачать торрент в хорошем качестве
    Дорогой папа смотреть онлайн бесплатно в хорошем качестве


    Вы не можете начинать темы
    Вы не можете отвечать на сообщения
    Вы не можете редактировать свои сообщения
    Вы не можете удалять свои сообщения
    Вы не можете голосовать в опросах
    Вы не можете прикреплять файлы к сообщениям
    Вы можете скачивать файлы