Всегда рабочее зеркало без VPN и Proxy просто перед .vidak.icu напиши любое слово или цифру, Пример http://1c79.vidak.icu

Лицензия

MVO

1 сезон

1

1 сезон

iTunes

1 сезон

13

1 сезон

Deluxe

pack

Рекомендуем

Repack

30

ВАЖНО

RePack

MK11

RePack

jed

RePack

fifa19

RePack

RDR2

RePack

NEED FOR SPEED™ PAYBACK

Кинопоиск HD

6 сезон

 Острые козырьки 6 сезон

Все сериалы

все сериалы на PB.wtf

RePack

FAR CRY 5
  
Magnet ссылка

Укрась прощальное утро цветами обещания / Sayonara no asa ni yakusoku no hana o kazaro (Мари Окада) [2018, Аниме, мультфильм, драма, мелодрама, приключения, фэнтези, BDRip-AVC] DUB [Лицензия BD RUS] - ExKinoRay pb.wtf

Укрась прощальное утро цветами обещания через торрент pb.wtf

Раздают: 8 [ 37 KB/s ] Качают: 1 [ 2 KB/s ]
Размер: 2.02 GB | Добавлен: 2 года 10 мес. назад | Торрент скачан:112 раз
Смотреть онлайн Укрась прощальное утро цветами обещания | Скачать    Ребята, помогите собрать деньги на оплату серверов!!!

13-10-2019 22:04 Укрась прощальное утро цветами обещания Скачать торрент  

Информация о фильме
Название: Укрась прощальное утро цветами обещания
Оригинальное название: Sayonara no Asa ni Yakusoku no Hana o Kazarou / Maquia: When the Promised Flower Blooms
Год выхода: 2018
Жанр: Аниме, мультфильм, драма, мелодрама, приключения, фэнтези
Режиссер: Мари Окада
В ролях: Манака Ивами, Ирино Мию, Ёко Хикаса, Хирата Хироаки, Ёсимаса Хосоя, Юки Кадзи, Аи Каяно, Мисаки Куно, Рина Сато, Миюки Савасиро и др.
Роли дублировали: Елена Симанович, Анна Гребенщикова, Василий Марков, Михаил Каданин, Мария Бондаренко.

Описание: Красавица Макия — из рода бессмертных. На протяжении веков многие армии пытались захватить её народ, чтобы завладеть секретом вечной жизни. И вот теперь, когда город разрушен, девушка прячется в лесу. Здесь она встречает потерявшего родителей маленького мальчика Эриала и начинает о нём заботиться. Проходят годы, мальчик превращается в прекрасного юношу, и у беглецов возникают чувства друг к другу. Но Макия понимает, что Эриал — простой человек, а значит, он смертен.

rating

Страна: Япония
Перевод: Дублированный | Лицензия
Продолжительность: 01:54:48
Субтитры: русские (форс., полные от Leonard Snow, Лицензия), английские

Формат: MKV
Качество: BDRip-AVC
Видео: MPEG-4 AVC, 1024x576 (16:9), 23,976 fps, ~ 1622 kbps
Русский : AC3, 5/1 ch, 448 Кбит/сек, CBR, 48,0 КГц (Лицензия)
Японский: AC3, 5/1 ch, 448 Кбит/сек, CBR, 48,0 КГц
General
Unique ID : 229458628455936364180469371190922089271 (0xACA01FD5AC1F074DBE621334BC869337)
Complete name : D:\Sayonara.no.Asa.ni.Yakusoku.no.Hana.o.Kazarou.2018.BDRip.AVC.ExKinoRay.mkv
Format : Matroska
Format version : Version 2
File size : 2.02 GiB
Duration : 1 h 54 min
Overall bit rate : 2 521 kb/s
Movie name : Maquia: When the Promised Flower Blooms (2018) from ExKinoRay
Encoded date : UTC 2019-10-13 21:41:14
Writing application : mkvmerge v5.6.0 ('Kenya Kane') built on May 27 2012 16:44:04
Writing library : libebml v1.2.3 + libmatroska v1.3.0

Video
ID : 1
Format : AVC
Format/Info : Advanced Video Codec
Format profile : [email protected]
Format settings, CABAC : Yes
Format settings, ReFrames : 12 frames
Codec ID : V_MPEG4/ISO/AVC
Duration : 1 h 54 min
Bit rate : 1 622 kb/s
Width : 1 024 pixels
Height : 576 pixels
Display aspect ratio : 16:9
Frame rate mode : Constant
Frame rate : 23.976 (24000/1001) FPS
Color space : YUV
Chroma subsampling : 4:2:0
Bit depth : 8 bits
Scan type : Progressive
Bits/(Pixel*Frame) : 0.115
Stream size : 1.26 GiB (62%)
Title : Enigma
Writing library : x264 core 152 r2851 ba24899
Encoding settings : cabac=1 / ref=12 / deblock=1:-2:-2 / analyse=0x3:0x113 / me=umh / subme=10 / psy=1 / psy_rd=1.05:0.10 / mixed_ref=1 / me_range=32 / chroma_me=1 / trellis=2 / 8x8dct=1 / cqm=0 / deadzone=21,11 / fast_pskip=0 / chroma_qp_offset=-3 / threads=12 / lookahead_threads=3 / sliced_threads=0 / nr=0 / decimate=0 / interlaced=0 / bluray_compat=0 / constrained_intra=0 / bframes=12 / b_pyramid=2 / b_adapt=2 / b_bias=0 / direct=3 / weightb=1 / open_gop=0 / weightp=2 / keyint=240 / keyint_min=23 / scenecut=40 / intra_refresh=0 / rc=2pass / mbtree=0 / bitrate=1622 / ratetol=1.0 / qcomp=0.60 / qpmin=0 / qpmax=51 / qpstep=4 / cplxblur=20.0 / qblur=0.5 / ip_ratio=1.40 / pb_ratio=1.30 / aq=2:0.90
Language : English
Default : Yes
Forced : No
Color range : Limited
Color primaries : BT.709
Transfer characteristics : BT.709
Matrix coefficients : BT.709

Audio #1
ID : 2
Format : AC-3
Format/Info : Audio Coding 3
Mode extension : CM (complete main)
Format settings, Endianness : Big
Codec ID : A_AC3
Duration : 1 h 54 min
Bit rate mode : Constant
Bit rate : 448 kb/s
Channel(s) : 6 channels
Channel positions : Front: L C R, Side: L R, LFE
Sampling rate : 48.0 kHz
Frame rate : 31.250 FPS (1536 spf)
Compression mode : Lossy
Stream size : 368 MiB (18%)
Title : Dub (Blu-Ray Rus)
Language : Russian
Default : Yes
Forced : No

Audio #2
ID : 3
Format : AC-3
Format/Info : Audio Coding 3
Mode extension : CM (complete main)
Format settings, Endianness : Big
Codec ID : A_AC3
Duration : 1 h 54 min
Bit rate mode : Constant
Bit rate : 448 kb/s
Channel(s) : 6 channels
Channel positions : Front: L C R, Side: L R, LFE
Sampling rate : 48.0 kHz
Frame rate : 31.250 FPS (1536 spf)
Compression mode : Lossy
Stream size : 368 MiB (18%)
Language : Japanese
Default : No
Forced : No

Text #1
ID : 4
Format : UTF-8
Codec ID : S_TEXT/UTF8
Codec ID/Info : UTF-8 Plain Text
Title : Forced
Language : Russian
Default : Yes
Forced : No

Text #2
ID : 5
Format : UTF-8
Codec ID : S_TEXT/UTF8
Codec ID/Info : UTF-8 Plain Text
Title : Full (Leonard Snow)
Language : Russian
Default : No
Forced : No

Text #3
ID : 6
Format : UTF-8
Codec ID : S_TEXT/UTF8
Codec ID/Info : UTF-8 Plain Text
Title : Full
Language : Russian
Default : No
Forced : No

Text #4
ID : 7
Format : UTF-8
Codec ID : S_TEXT/UTF8
Codec ID/Info : UTF-8 Plain Text
Title : Full
Language : English
Default : No
Forced : No

Menu
00:00:00.000 : :Chapter 01
00:05:00.000 : :Chapter 02
00:10:00.000 : :Chapter 03
00:15:00.000 : :Chapter 04
00:20:00.000 : :Chapter 05
00:25:00.000 : :Chapter 06
00:30:00.000 : :Chapter 07
00:35:00.000 : :Chapter 08
00:40:00.000 : :Chapter 09
00:45:00.000 : :Chapter 10
00:50:00.000 : :Chapter 11
00:55:00.000 : :Chapter 12
01:00:00.000 : :Chapter 13
01:05:00.000 : :Chapter 14
01:10:00.000 : :Chapter 15
01:15:00.000 : :Chapter 16
01:20:00.000 : :Chapter 17
01:25:00.000 : :Chapter 18
01:30:00.000 : :Chapter 19
01:35:00.000 : :Chapter 20
01:40:00.000 : :Chapter 21
01:45:00.000 : :Chapter 22
01:50:00.000 : :Chapter 23


Релиз от:

Автор релиза: pb.wtf



Скачать Укрась прощальное утро цветами обещания через торрент http://lostpix.com/thumbs/2018-11/18/rd1tzp7aqhbg6ko25bk3ekip5.png Скачать, смотреть онлайн Укрась прощальное утро цветами обещания бесплантно в хорошем качестве Описание: Красавица Макия — из рода бессмертных. На протяжении веков многие армии пытались захватить её народ, чтобы завладеть секретом ... 10 10 1
Info! Золотая раздача, скачанное не засчитывается.
Торрент: Зарегистрирован [2019-10-13 22:04] · скачан: 112 раз
Статус: √ проверено
Размер: 2.02 GB
Как cкачать? Как скачать Укрась прощальное утро цветами обещания через торрент | UTorrent

28-11-2019 20:33  

Отключить вcю реклaмy на сайте

    Дорогой пользователь! Огромная просьба, поблагодарите релизера, оцените раздачу и оставьте свои комментарий, если Вы скачали Укрась прощальное утро цветами обещания через торрент бесплатно!
    Комментировать посты могут только пользователи прошедшие не сложную регистрацию
    Показать сообщения:    

    Укрась прощальное утро цветами обещания через торрент
    Скачать бесплатно Укрась прощальное утро цветами обещания
    Укрась прощальное утро цветами обещания скачать торрент
    Укрась прощальное утро цветами обещания смотреть онлайн
    Cкачать фильм Укрась прощальное утро цветами обещания бесплатно
    Укрась прощальное утро цветами обещания скачать торрент в хорошем качестве
    Укрась прощальное утро цветами обещания смотреть онлайн бесплатно в хорошем качестве


    Вы не можете начинать темы
    Вы не можете отвечать на сообщения
    Вы не можете редактировать свои сообщения
    Вы не можете удалять свои сообщения
    Вы не можете голосовать в опросах
    Вы не можете прикреплять файлы к сообщениям
    Вы можете скачивать файлы