Ссылка на приватное зеркало нашего сайта всего за 1$. Внимание количество ограничено!!!

2 сезон

iTunes

1 сезон

1

2 сезон

2 сезон

iTunes

1 сезон

RePack

30

Новинка

ВАЖНО

ИГРА 18+

pack

RePack

MK11
pack

Забери бонус

RePack

jed

!!Акция!!

Alien_Rage

RePack

fifa19

RePack

Assassins Creed: Odyssey

RePack

NEED FOR SPEED™ PAYBACK

4 сезон

9 сезон

Бесстыжие 9 сезон

Все сериалы

все сериалы на PB.wtf

RePack

FAR CRY 5
  

Божественная любовь / Divino Amor (Габриэль Маскаро) [2019, Драма, WEB-DL 1080p] MVO [iTunes] pb.wtf

Божественная любовь через торрент pb.wtf

Размер: 4.87 GB | Добавлен: 1 год 1 мес. назад | Торрент скачан:45 раз
Скачать  

14-10-2019 00:58 Божественная любовь Скачать торрент  

Божественная любовь / Divino Amor
Год выпуска: 2019
Страна: Бразилия , Уругвай , Дания , Норвегия , Чили , Швеция
Жанр: Драма
Продолжительность: 01:39:50
Перевод: Профессиональный многоголосый | iTunes
Субтитры: отсутствуют

Режиссер: Габриэль Маскаро

rating

В ролях: Дира Паис, Жулиу Мачаду, Antonio Pastich, Рубенс Сантос, Clayton Mariano, Luciano Mallmann, Тека Перейра, Suzy Lopes, Thardelly Lima, Тони Силва

Описание: Бразилия, 2027 год. Люди обращаются к богу через кабинки автомолитв и устраивают в честь всевышнего рейв-вечеринки. Главная героиня фильма, Жоана, консультирует супружеские пары в кризисе, а свободное время посвящает религиозной общине, практикующей крайне радикальный способ сближения супругов.

Качество: WEB-DL 1080p
Формат: MKV

Видео: MPEG-4 AVC, 1920x1080, 6211 Kbit/s, 24 fps
Аудио#1: 48 kHz, AC3, 5.1, 384 Kbps | iTunes | RUS |
Аудио#2: 48 kHz, AC3, 5.1, 384 Kbps | Оригинал | POR |
скриншот  скриншот  скриншот  скриншот  скриншот  

General
Unique ID : 57878639272146872983223304487932760341 (0x2B8B053C4E962C9B9E426EE3CBF79115)
Complete name : D:Video111Divino.Amor.2019.WEB-DL.1080p.seleZen.mkv
Format : Matroska
Format version : Version 4
File size : 4.87 GiB
Duration : 1 h 39 min
Overall bit rate : 6 981 kb/s
Movie name : Divino Amor 2019 from селезень
Encoded date : UTC 2019-10-13 20:56:03
Writing application : mkvmerge v22.0.0 ('At The End Of The World') 64-bit
Writing library : libebml v1.3.5 + libmatroska v1.4.8

Video
ID : 1
Format : AVC
Format/Info : Advanced Video Codec
Format profile : High@L4
Format settings : CABAC / 2 Ref Frames
Format settings, CABAC : Yes
Format settings, Reference : 2 frames
Codec ID : V_MPEG4/ISO/AVC
Duration : 1 h 39 min
Bit rate : 6 211 kb/s
Width : 1 920 pixels
Height : 1 080 pixels
Display aspect ratio : 16:9
Frame rate mode : Constant
Frame rate : 24.000 FPS
Color space : YUV
Chroma subsampling : 4:2:0
Bit depth : 8 bits
Scan type : Progressive
Bits/(Pixel*Frame) : 0.125
Stream size : 4.33 GiB (89%)
Language : Portuguese
Default : Yes
Forced : No
Color range : Limited
Color primaries : BT.709
Transfer characteristics : BT.709
Matrix coefficients : BT.709

Audio #1
ID : 2
Format : AC-3
Format/Info : Audio Coding 3
Commercial name : Dolby Digital
Codec ID : A_AC3
Duration : 1 h 39 min
Bit rate mode : Constant
Bit rate : 384 kb/s
Channel(s) : 6 channels
Channel layout : L R C LFE Ls Rs
Sampling rate : 48.0 kHz
Frame rate : 31.250 FPS (1536 SPF)
Bit depth : 16 bits
Compression mode : Lossy
Stream size : 274 MiB (6%)
Title : iTunes
Language : Russian
Service kind : Complete Main
Default : Yes
Forced : Yes

Audio #2
ID : 3
Format : AC-3
Format/Info : Audio Coding 3
Commercial name : Dolby Digital
Codec ID : A_AC3
Duration : 1 h 39 min
Bit rate mode : Constant
Bit rate : 384 kb/s
Channel(s) : 6 channels
Channel layout : L R C LFE Ls Rs
Sampling rate : 48.0 kHz
Frame rate : 31.250 FPS (1536 SPF)
Bit depth : 16 bits
Compression mode : Lossy
Stream size : 274 MiB (6%)
Title : Original
Language : Portuguese
Service kind : Complete Main
Default : No
Forced : No

Menu
00:00:00.000 : en:00:00:00.000
00:07:57.560 : en:00:07:57.560
00:15:34.225 : en:00:15:34.225
00:24:02.066 : en:00:24:02.066
00:32:57.017 : en:00:32:57.017
00:43:00.411 : en:00:43:00.411
00:52:29.688 : en:00:52:29.688
01:02:07.599 : en:01:02:07.599
01:06:14.179 : en:01:06:14.179
01:15:05.334 : en:01:15:05.334
01:21:45.025 : en:01:21:45.025
01:30:22.250 : en:01:30:22.250
01:39:58.618 : en:01:39:58.618

pb.wtf



Скачать Божественная любовь через торрент https://img15.lostpic.net/2019/10/14/6ed61f05a8ddd8c59ea350d944ab12a0.jpg Скачать фильм Божественная любовь через торрент бесплантно в хорошем качестве Описание: Бразилия, 2027 год. Люди обращаются к богу через кабинки автомолитв и устраивают в честь всевышнего рейв-вечеринки. Главная ... 10 10 5
Торрент: Зарегистрирован [2019-10-14 00:58] · скачан: 45 раз
Статус: √ проверено
Размер: 4.87 GB
Как cкачать? Как скачать Божественная любовь через торрент | qTorrent

% Раздел Тема Автор DL S | L
Фильмы 2019-2020 [DVDrip, WEB-DLRip, HDrip] (DUB, MVO) [ 1.46 GB ] Божественная любовь / Divino Amor [2019 WEB-DLRip] MVO bober100 Скачать
1 | 0

28-11-2019 20:33  

Отключить всю рекламу на сайте

    Дорогой пользователь! Огромная просьба, поблагодарите релизера, оцените раздачу и оставьте свои комментарий, если Вы скачали Божественная любовь через торрент бесплатно! Внесите свою лепту в развитие PiratBit!
    Комментировать посты могут только пользователи прошедшие не сложную регистрацию
    Показать сообщения:    

    Божественная любовь через торрент
    Скачать бесплатно Божественная любовь
    Божественная любовь скачать торрент
    Божественная любовь смотреть онлайн
    Cкачать фильм Божественная любовь бесплатно
    Божественная любовь скачать торрент в хорошем качестве
    Божественная любовь смотреть онлайн бесплатно в хорошем качестве


    Вы не можете начинать темы
    Вы не можете отвечать на сообщения
    Вы не можете редактировать свои сообщения
    Вы не можете удалять свои сообщения
    Вы не можете голосовать в опросах
    Вы не можете прикреплять файлы к сообщениям
    Вы можете скачивать файлы