Anonymous, добрый день, присоединяйтесь к нам в Telegram!, здесь всегда актуальный адрес сайта, оперативная поддержка и многое другое!

>

5.5

iTunes

7.4

iTunes

7.9

iTunes

1

7.7

1 сезон

6.8

iTunes

7.3

1 сезон

13

6.7

1 сезон

8.3

RePack

30

ULTIMATE

pack

9.9

Лицензия

ВАЖНО

ИГРА 18+

pack

7.3

RePack

MK11

7.7

RePack

jed

7.8

RePack

fifa19

8.5

RePack

RDR2

RePack

NEED FOR SPEED™ PAYBACK

4 сезон

9 сезон

Бесстыжие 9 сезон

Все сериалы

все сериалы на PB.wtf

RePack

FAR CRY 5

Anonymous, добрый день, мы катастрофически не успеваем собрать деньги на оплату серверов, помогите нам пожалуйста 5,10,15р., для нас важна любая помощь . В качестве благодарности мы отключим Вам всю рекламу на сайте (укажите свой ник в строку Ваше имя)!

×
  
Magnet ссылка

ИП Пирогова / Сезон: 2 / Серии: 1-13 из 13 (Антон Маслов) [2019, Комедия, WEB-DL 720p] pb.wtf

ИП Пирогова через торрент pb.wtf

Раздают: 1 [ 0 KB/s ]
Размер: 5.88 GB | Добавлен: 1 год 11 мес. назад | Торрент скачан:161 раз
Смотреть онлайн ИП Пирогова | Скачать    Ребята, помогите собрать деньги на оплату серверов!!!

14-10-2019 01:11 ИП Пирогова Скачать торрент  

ИП Пирогова
Год выпуска: 2019
Страна: Россия
Жанр: Комедия
Продолжительность: ~ 00:25:00
Перевод: Не требуется
Субтитры: отсутствуют

Режиссер: Антон Маслов



В ролях: Елена Подкаминская, Александр Панкратов-Чёрный, Данила Дунаев, Ксения Теплова, Александр Константинов, Василина Юсковец, Елена Валюшкина

Описание: Освоив азы индивидуального предпринимательства, Вера Пирогова продолжает строить свой кондитерский бизнес. С маленькой домашней кухни она перебирается в собственное кафе-пекарню и, кажется, теперь до осуществления заветной мечты осталось совсем чуть-чуть. Однако двери кондитерской не успевают открыться, как Вере вновь приходится решать одну проблему за другой. Впрочем, шумная семья начинающей бизнес-леди всегда готова прийти на помощь. Как и Андрей – первая любовь Веры, который намерен заново покорить сердце предприимчивого кондитера. Это будет непросто, ведь Андрею придется конкурировать за внимание Веры не только с ее бизнесом, но и с мужем Димой, вернувшимся домой из СИЗО. Решится ли Вера дать второй шанс кому-то из мужчин?

Качество: WEB-DL 720p
Формат: MKV

Видео: MPEG4 AVC Video, H264, 16:9, 1280x720, 25 fps, ~2600 kbps, 0.113 bit/pixel
Аудио: AC3, 48.0 kHz, 2/0 (L,R) ch, 192 kbps
скриншот  скриншот  скриншот  скриншот  

General
Unique ID : 173053674208324004174346499201521492491 (0x8230ECE167A1894DBFD2303E221D220B)
Complete name : D:\IP.Pirogova.s02.(2019).WEB-DL.720p.ExKinoRay\IP.Pirogova.s02.e01.(2019).WEB-DL.720p.ExKinoRay.mkv
Format : Matroska
Format version : Version 2
File size : 474 MiB
Duration : 24 min 0 s
Overall bit rate mode : Constant
Overall bit rate : 2 761 kb/s
Encoded date : UTC 2019-10-13 13:46:29
Writing application : mkvmerge v5.8.0 ('No Sleep / Pillow') built on Sep 2 2012 15:37:04
Writing library : libebml v1.2.3 + libmatroska v1.3.0

Video
ID : 1
Format : AVC
Format/Info : Advanced Video Codec
Format profile : Baseline@L4
Format settings : 4 Ref Frames
Format settings, CABAC : No
Format settings, ReFrames : 4 frames
Codec ID : V_MPEG4/ISO/AVC
Duration : 24 min 0 s
Bit rate mode : Constant
Bit rate : 2 600 kb/s
Width : 1 280 pixels
Height : 720 pixels
Display aspect ratio : 16:9
Frame rate mode : Constant
Frame rate : 25.000 FPS
Standard : PAL
Color space : YUV
Chroma subsampling : 4:2:0
Bit depth : 8 bits
Scan type : Progressive
Bits/(Pixel*Frame) : 0.113
Stream size : 432 MiB (91%)
Language : Russian
Default : Yes
Forced : No
Color range : Limited
Color primaries : BT.709
Transfer characteristics : BT.709
Matrix coefficients : BT.709

Audio
ID : 2
Format : AC-3
Format/Info : Audio Coding 3
Codec ID : A_AC3
Duration : 24 min 0 s
Bit rate mode : Constant
Bit rate : 192 kb/s
Channel(s) : 2 channels
Channel positions : Front: L R
Sampling rate : 48.0 kHz
Frame rate : 31.250 FPS (1536 SPF)
Bit depth : 16 bits
Compression mode : Lossy
Stream size : 33.0 MiB (7%)
Language : Russian
Service kind : Complete Main
Default : Yes
Forced : No

Когда раздача ведётся путём добавления новых серий, при каждом добавлении создётся новый торрент. Чтобы начать докачку новой серии, пользователям необходимо сделать следующее:
(1) остановить скачивание,
(2) удалить старый торрент у себя из клиента (старые серии удалять не надо),
(3) скачать новый торрент и запустить его у себя в клиенте вместо старого, при этом указать клиенту путь в старую папку, куда и должно происходить скачивание новых серий.
Ваш клиент при этом должен произвести хеширование (проверку) старой папки (если не производит сам - помогите ему сделать это), и будет докачивать только те серии, которых у вас ещё нет. Старые серии при этом не удаляются, а продолжают раздаваться!
Eсли вы уже удалили старые серии, то предотвратить повторную закачку старых серий можно, отжав галочку в соответсвующих местах при запуске нового торрента. По возможности, желательно не удалять старые серии как можно дольше, чтобы релизер не столько продолжал раздавать старые серии, а смог сконцентрироваться на новых.
pb.wtf



Скачать ИП Пирогова через торрент https://img10.lostpic.net/2019/02/10/2c2484f2765ad3101910a05d60a4b7d8.jpg Скачать, смотреть онлайн ИП Пирогова бесплантно в хорошем качестве Описание: Освоив азы индивидуального предпринимательства, Вера Пирогова продолжает строить свой кондитерский бизнес. С маленькой домашней ... 10 10 11
Торрент: Зарегистрирован [2019-11-14 02:41] · скачан: 161 раз
Статус: √ проверено
Размер: 5.88 GB
Как cкачать? Как скачать ИП Пирогова через торрент | UTorrent

% Раздел Тема Автор DL S | L
TNT serials [ 9.9 GB ] ИП Пирогова / Сезон: 2 / Серии: 1-13 из 13 [2019 WEB-DL 1080p] bober100 Скачать
1 | 0
TNT serials [ 4.45 GB ] ИП Пирогова / Сезон: 2 / Серии: 1-13 из 13 [2019 WEB-DLRip] bober100 Скачать
1 | 0
TNT serials [ 4.65 GB ] ИП Пирогова / Сезон: 2 / Серии: 1-13 из 13 [2019 WEB-DLRip-AVC] bober100 Скачать
1 | 0


Последний раз редактировалось: bober100 (2019-11-14 02:41), всего редактировалось 4 раз(а)

28-11-2019 20:33  

Отключить всю рекламу на сайте

03-11-2019 06:21 ИП Пирогова Скачать торрент  

когда новые серии добавляются?pb.wtf



    Дорогой пользователь! Огромная просьба, поблагодарите релизера, оцените раздачу и оставьте свои комментарий, если Вы скачали ИП Пирогова через торрент бесплатно!
    Комментировать посты могут только пользователи прошедшие не сложную регистрацию
    Показать сообщения:    

    ИП Пирогова через торрент
    Скачать бесплатно ИП Пирогова
    ИП Пирогова скачать торрент
    ИП Пирогова смотреть онлайн
    Cкачать фильм ИП Пирогова бесплатно
    ИП Пирогова скачать торрент в хорошем качестве
    ИП Пирогова смотреть онлайн бесплатно в хорошем качестве


    Вы не можете начинать темы
    Вы не можете отвечать на сообщения
    Вы не можете редактировать свои сообщения
    Вы не можете удалять свои сообщения
    Вы не можете голосовать в опросах
    Вы не можете прикреплять файлы к сообщениям
    Вы можете скачивать файлы