Ссылка на приватное зеркало нашего сайта всего за 1$. Внимание количество ограничено!!!

2 сезон

iTunes

1 сезон

1

iTunes

iTunes

iTunes

1 сезон

RePack

30

ИГРА 18+

pack

ВАЖНО

!!Акция!!

Alien_RageХит недели

RePack

MK11
pack

Забери бонус

RePack

jed

!!Акция!!

Alien_Rage

RePack

fifa19

RePack

Assassins Creed: Odyssey

RePack

NEED FOR SPEED™ PAYBACK

4 сезон

9 сезон

Бесстыжие 9 сезон

Все сериалы

все сериалы на PB.wtf

RePack

FAR CRY 5
  

Рассеянный / Le distrait (Пьер Ришар) [1970, комедия, BDRip (AVC) by msltel] DVO pb.wtf

Рассеянный через торрент pb.wtf

Размер: 1.85 GB | Добавлен: 1 год назад | Торрент скачан:6 раз
Скачать  

14-10-2019 06:42 Рассеянный Скачать торрент  

Название: Рассеянный
Оригинальное название: Le distrait
Год выпуска: 1970
Страна: Франция
Жанр: комедия
Продолжительность: 01:23:12
Перевод: закадровый двухголосый

Режиссер: Пьер Ришар
В ролях: Пьер Ришар, Мари-Кристин Барро, Мария Паком, Катрин Сами, Мишелен Луччони, Поль Пребуа, Цилла Шелтон, Робер Дальбан, Франсуа Мэстр, Жак Моно

О фильме: Пьер, по рекомендации матери, принят ведущим менеджером в крупное рекламное агентство «Жерико». Его голова постоянно занята бредовыми рекламными идеями. Он предлагает новый взгляд на работу с покупателем и ставит рекламный бизнес фирмы с ног на голову, но, тем не менее, проекты приносят хорошую прибыль. К сожалению, парень ужасно рассеян, и из-за этого с ним происходят постоянные курьезы, добавляющие немало хлопот его шефу. Но босс готов терпеть, ведь он влюблен в мамашу «героя»...



Качество: BDRip (AVC)
Формат: MKV
Видео: MPEG-4 AVC, 2726 Кбит/с, 960x576
Аудио 1: русский, AC3, 256 kbps, 2 ch, 48 kHz [закадровый двухголосый, HTB+]
Аудио 2: французский, AC3, 192 kbps, 2 ch, 48 kHz [оригинал]
Главы/чаптеры
Общее
Уникальный идентификатор : 188552248969096766812546179182094729537 (0x8DD9D79CD9FC71CAA54BBADE20684141)
Полное имя : D:\Video\Рассеянный.1970.BDRip (AVC) by msltel.mkv
Формат : Matroska
Версия формата : Version 4
Размер файла : 1,85 Гбайт
Продолжительность : 1 ч. 23 м.
Общий поток : 3176 Кбит/сек
Название фильма : Rip by msltel
Дата кодирования : UTC 2019-10-14 01:04:29
Программа кодирования : mkvmerge v8.2.0 ('World of Adventure') 64bit
Библиотека кодирования : libebml v1.3.1 + libmatroska v1.4.2

Видео
Идентификатор : 1
Формат : AVC
Формат/Информация : Advanced Video Codec
Профиль формата : High@L4.1
Настройки формата : CABAC / 9 Ref Frames
Параметр CABAC формата : Да
Параметр RefFrames формата : 9 кадров
Идентификатор кодека : V_MPEG4/ISO/AVC
Продолжительность : 1 ч. 23 м.
Битрейт : 2726 Кбит/сек
Ширина : 960 пикселей
Высота : 576 пикселей
Соотношение сторон : 5:3
Режим частоты кадров : Постоянный
Частота кадров : 23,976 (24000/1001) кадра/сек
Цветовое пространство : YUV
Субдискретизация насыщенности : 4:2:0
Битовая глубина : 8 бит
Тип развёртки : Прогрессивная
Бит/(Пиксели*Кадры) : 0.206
Размер потока : 1,58 Гбайт (86%)
Библиотека кодирования : x264 core 157 r2935 545de2f
Настройки программы : cabac=1 / ref=9 / deblock=1:-2:-2 / analyse=0x3:0x113 / me=umh / subme=11 / psy=1 / psy_rd=1.00:0.15 / mixed_ref=1 / me_range=32 / chroma_me=1 / trellis=2 / 8x8dct=1 / cqm=0 / deadzone=21,11 / fast_pskip=0 / chroma_qp_offset=-3 / threads=6 / lookahead_threads=1 / sliced_threads=0 / nr=0 / decimate=1 / interlaced=0 / bluray_compat=0 / constrained_intra=0 / bframes=9 / b_pyramid=2 / b_adapt=2 / b_bias=0 / direct=1 / weightb=1 / open_gop=0 / weightp=2 / keyint=230 / keyint_min=23 / scenecut=40 / intra_refresh=0 / rc_lookahead=40 / rc=crf / mbtree=1 / crf=20.0 / qcomp=0.60 / qpmin=0 / qpmax=69 / qpstep=4 / vbv_maxrate=50000 / vbv_bufsize=62500 / crf_max=0.0 / nal_hrd=none / filler=0 / ip_ratio=1.40 / aq=1:1.00
Язык : French
Default : Да
Forced : Нет

Аудио #1
Идентификатор : 2
Формат : AC-3
Формат/Информация : Audio Coding 3
Коммерческое название : Dolby Digital
Идентификатор кодека : A_AC3
Продолжительность : 1 ч. 23 м.
Вид битрейта : Постоянный
Битрейт : 256 Кбит/сек
Каналы : 2 канала
ChannelLayout : L R
Частота : 48,0 КГц
Частота кадров : 31,250 кадров/сек (1536 SPF)
Метод сжатия : С потерями
Размер потока : 152 Мбайт (8%)
Заголовок : DVO HTB+
Язык : Russian
ServiceKind/String : Complete Main
Default : Да
Forced : Нет

Аудио #2
Идентификатор : 3
Формат : AC-3
Формат/Информация : Audio Coding 3
Коммерческое название : Dolby Digital
Идентификатор кодека : A_AC3
Продолжительность : 1 ч. 23 м.
Вид битрейта : Постоянный
Битрейт : 192 Кбит/сек
Каналы : 2 канала
ChannelLayout : L R
Частота : 48,0 КГц
Частота кадров : 31,250 кадров/сек (1536 SPF)
Метод сжатия : С потерями
Размер потока : 114 Мбайт (6%)
Заголовок : original
Язык : French
ServiceKind/String : Complete Main
Default : Нет
Forced : Нет

Меню
00:00:00.000 : fr:Chapitre 01
00:04:57.547 : fr:Chapitre 02
00:12:21.699 : fr:Chapitre 03
00:18:35.990 : fr:Chapitre 04
00:24:39.144 : fr:Chapitre 05
00:30:53.143 : fr:Chapitre 06
00:38:38.316 : fr:Chapitre 07
00:44:39.093 : fr:Chapitre 08
00:50:36.200 : fr:Chapitre 09
00:58:13.281 : fr:Chapitre 10
01:04:14.601 : fr:Chapitre 11
01:11:50.806 : fr:Chapitre 12
pb.wtf



Скачать Рассеянный через торрент https://c.radikal.ru/c19/1910/4d/3408a6cbe415.jpg Скачать фильм Рассеянный через торрент бесплантно в хорошем качестве О фильме: Пьер, по рекомендации матери, принят ведущим менеджером в крупное рекламное агентство «Жерико». Его голова постоянно занята ... 5 10 1
Торрент: Зарегистрирован [2019-10-14 06:42] · скачан: 6 раз
Статус: √ проверено
Размер: 1.85 GB
Как cкачать? Как скачать Рассеянный через торрент | qTorrent

% Раздел Тема Автор DL S | L
Классика зарубежного кино [ 8.75 GB ] Рассеянный / Le distrait [1970 BDRip 1080p by msltel] DVO msltel Скачать
1 | 0
Классика зарубежного кино [ 3.19 GB ] Рассеянный / Le distrait [1970 BDRip 720p by msltel] DVO msltel Скачать
1 | 0

28-11-2019 20:33  

Отключить всю рекламу на сайте

    Дорогой пользователь! Огромная просьба, поблагодарите релизера, оцените раздачу и оставьте свои комментарий, если Вы скачали Рассеянный через торрент бесплатно! Внесите свою лепту в развитие PiratBit!
    Комментировать посты могут только пользователи прошедшие не сложную регистрацию
    Показать сообщения:    

    Рассеянный через торрент
    Скачать бесплатно Рассеянный
    Рассеянный скачать торрент
    Рассеянный смотреть онлайн
    Cкачать фильм Рассеянный бесплатно
    Рассеянный скачать торрент в хорошем качестве
    Рассеянный смотреть онлайн бесплатно в хорошем качестве


    Вы не можете начинать темы
    Вы не можете отвечать на сообщения
    Вы не можете редактировать свои сообщения
    Вы не можете удалять свои сообщения
    Вы не можете голосовать в опросах
    Вы не можете прикреплять файлы к сообщениям
    Вы можете скачивать файлы