новый адрес
Мега распродажа FORZA HORIZON 4 ULTIMATE+ВСЕ DLC+ОНЛАЙН всего за 499р. 349 руб. (супер цена). Внимание количество ограничено!!!

iTunes

1+1

iTunes

мы

iTunes

1

iTunes

Чернобыль

iTunes

Ральф против интернета

Лицензия

ПШазам

Лицензия

Игра престолов

Лицензия

30
pack

ВАЖНО

!!Акция!!

Alien_RageХит недели

RePack

Resident Evil 21

ИГРА 18+

pack

RePack

Metro:Exodus

!!Акция!!

Alien_Rage

RePack

fifa19

RePack

Assassins Creed: Odyssey

RePack

NEED FOR SPEED™ PAYBACK

3 сезон

9 сезон

Бесстыжие 9 сезон

Все сериалы

все сериалы на PB.wtf

RePack

FAR CRY 5
Ребята, катастрофически не хватает 1900р. для оплаты серверов за Октябрь (всвязи с блокировками трафик упал в 3 раза), 1-2р., выручайте.
  

Рассеянный / Le distrait (Пьер Ришар) [1970, комедия, BDRip 720p by msltel] DVO pb.wtf

Рассеянный через торрент pb.wtf

Раздают: 1 [ 0 KB/s ]
Размер: 3.19 GB | Добавлен: 1 мес. 3 д. назад | Торрент скачан:8 раз
Скачать  

14-10-2019 07:45 Рассеянный Скачать торрент  

Название: Рассеянный
Оригинальное название: Le distrait
Год выпуска: 1970
Страна: Франция
Жанр: комедия
Продолжительность: 01:23:12
Перевод: закадровый двухголосый

Режиссер: Пьер Ришар
В ролях: Пьер Ришар, Мари-Кристин Барро, Мария Паком, Катрин Сами, Мишелен Луччони, Поль Пребуа, Цилла Шелтон, Робер Дальбан, Франсуа Мэстр, Жак Моно

О фильме: Пьер, по рекомендации матери, принят ведущим менеджером в крупное рекламное агентство «Жерико». Его голова постоянно занята бредовыми рекламными идеями. Он предлагает новый взгляд на работу с покупателем и ставит рекламный бизнес фирмы с ног на голову, но, тем не менее, проекты приносят хорошую прибыль. К сожалению, парень ужасно рассеян, и из-за этого с ним происходят постоянные курьезы, добавляющие немало хлопот его шефу. Но босс готов терпеть, ведь он влюблен в мамашу «героя»...



Качество: BDRip 720p
Формат: MKV
Видео: MPEG-4 AVC, 5044 Кбит/с, 1198x720
Аудио 1: русский, AC3, 256 kbps, 2 ch, 48 kHz [закадровый двухголосый, HTB+]
Аудио 2: французский, AC3, 192 kbps, 2 ch, 48 kHz [оригинал]
Главы/чаптеры
Общее
Уникальный идентификатор : 170619946047904996683303523383654244508 (0x805C34D168E696A980C6FBCC2608609C)
Полное имя : D:\Video\Рассеянный.1970.BDRip 720p by msltel.mkv
Формат : Matroska
Версия формата : Version 4
Размер файла : 3,19 Гбайт
Продолжительность : 1 ч. 23 м.
Общий поток : 5494 Кбит/сек
Название фильма : Rip by msltel
Дата кодирования : UTC 2019-10-14 01:31:26
Программа кодирования : mkvmerge v8.2.0 ('World of Adventure') 64bit
Библиотека кодирования : libebml v1.3.1 + libmatroska v1.4.2

Видео
Идентификатор : 1
Формат : AVC
Формат/Информация : Advanced Video Codec
Профиль формата : High@L4.1
Настройки формата : CABAC / 9 Ref Frames
Параметр CABAC формата : Да
Параметр RefFrames формата : 9 кадров
Идентификатор кодека : V_MPEG4/ISO/AVC
Продолжительность : 1 ч. 23 м.
Битрейт : 5044 Кбит/сек
Ширина : 1198 пикселей
Высота : 720 пикселей
Соотношение сторон : 5:3
Режим частоты кадров : Постоянный
Частота кадров : 23,976 (24000/1001) кадра/сек
Цветовое пространство : YUV
Субдискретизация насыщенности : 4:2:0
Битовая глубина : 8 бит
Тип развёртки : Прогрессивная
Бит/(Пиксели*Кадры) : 0.244
Размер потока : 2,93 Гбайт (92%)
Библиотека кодирования : x264 core 157 r2935 545de2f
Настройки программы : cabac=1 / ref=9 / deblock=1:-2:-2 / analyse=0x3:0x113 / me=umh / subme=11 / psy=1 / psy_rd=1.00:0.15 / mixed_ref=1 / me_range=32 / chroma_me=1 / trellis=2 / 8x8dct=1 / cqm=0 / deadzone=21,11 / fast_pskip=0 / chroma_qp_offset=-3 / threads=6 / lookahead_threads=1 / sliced_threads=0 / nr=0 / decimate=1 / interlaced=0 / bluray_compat=0 / constrained_intra=0 / bframes=9 / b_pyramid=2 / b_adapt=2 / b_bias=0 / direct=1 / weightb=1 / open_gop=0 / weightp=2 / keyint=230 / keyint_min=23 / scenecut=40 / intra_refresh=0 / rc_lookahead=40 / rc=crf / mbtree=1 / crf=20.0 / qcomp=0.60 / qpmin=0 / qpmax=69 / qpstep=4 / vbv_maxrate=50000 / vbv_bufsize=62500 / crf_max=0.0 / nal_hrd=none / filler=0 / ip_ratio=1.40 / aq=1:1.00
Язык : French
Default : Да
Forced : Нет

Аудио #1
Идентификатор : 2
Формат : AC-3
Формат/Информация : Audio Coding 3
Коммерческое название : Dolby Digital
Идентификатор кодека : A_AC3
Продолжительность : 1 ч. 23 м.
Вид битрейта : Постоянный
Битрейт : 256 Кбит/сек
Каналы : 2 канала
ChannelLayout : L R
Частота : 48,0 КГц
Частота кадров : 31,250 кадров/сек (1536 SPF)
Метод сжатия : С потерями
Размер потока : 152 Мбайт (5%)
Заголовок : DVO HTB+
Язык : Russian
ServiceKind/String : Complete Main
Default : Да
Forced : Нет

Аудио #2
Идентификатор : 3
Формат : AC-3
Формат/Информация : Audio Coding 3
Коммерческое название : Dolby Digital
Идентификатор кодека : A_AC3
Продолжительность : 1 ч. 23 м.
Вид битрейта : Постоянный
Битрейт : 192 Кбит/сек
Каналы : 2 канала
ChannelLayout : L R
Частота : 48,0 КГц
Частота кадров : 31,250 кадров/сек (1536 SPF)
Метод сжатия : С потерями
Размер потока : 114 Мбайт (3%)
Заголовок : original
Язык : French
ServiceKind/String : Complete Main
Default : Нет
Forced : Нет

Меню
00:00:00.000 : fr:Chapitre 01
00:04:57.547 : fr:Chapitre 02
00:12:21.699 : fr:Chapitre 03
00:18:35.990 : fr:Chapitre 04
00:24:39.144 : fr:Chapitre 05
00:30:53.143 : fr:Chapitre 06
00:38:38.316 : fr:Chapitre 07
00:44:39.093 : fr:Chapitre 08
00:50:36.200 : fr:Chapitre 09
00:58:13.281 : fr:Chapitre 10
01:04:14.601 : fr:Chapitre 11
01:11:50.806 : fr:Chapitre 12
pb.wtf



Скачать Рассеянный через торрент https://c.radikal.ru/c19/1910/4d/3408a6cbe415.jpg Скачать фильм Рассеянный через торрент бесплантно в хорошем качестве О фильме: Пьер, по рекомендации матери, принят ведущим менеджером в крупное рекламное агентство «Жерико». Его голова постоянно занята ... 5 10 1
Торрент: Зарегистрирован [2019-10-14 07:45] · скачан: 8 раз
Статус: √ проверено
Размер: 3.19 GB
Как cкачать? Как скачать Рассеянный через торрент | qTorrent

% Раздел Тема Автор DL S | L
Классика зарубежного кино [ 8.75 GB ] Рассеянный / Le distrait [1970 BDRip 1080p by msltel] DVO msltel Скачать
2 | 0
Классика зарубежного кино [ 1.85 GB ] Рассеянный / Le distrait [1970 BDRip by msltel] DVO msltel Скачать
2 | 0
Классика зарубежного кино [ 1.45 GB ] Рассеянный / Le Distrait [1970 WEB-DLRip-AVC] DVO dexter lex Скачать
1 | 0


>> Регистрируемся здесь <<






Отзывы и комментарии о схеме читаем и пишем здесь: ---> Отзывы и комментарии о схеме

Новые благодарочки в телеграм довольных пользователей:
скриншот   скриншот   скриншот   скриншот   скриншот
    Дорогой пользователь! Огромная просьба, поблагодарите релизера, оцените раздачу и оставьте свои комментарий, если Вы скачали Рассеянный через торрент бесплатно! Внесите свою лепту в развитие PiratBit!
    Комментировать посты могут только пользователи прошедшие не сложную регистрацию
    Показать сообщения:    

    Рассеянный через торрент
    Скачать бесплатно Рассеянный
    Рассеянный скачать торрент
    Рассеянный смотреть онлайн
    Cкачать фильм Рассеянный бесплатно
    Рассеянный скачать торрент в хорошем качестве
    Рассеянный смотреть онлайн бесплатно в хорошем качестве


    Вы не можете начинать темы
    Вы не можете отвечать на сообщения
    Вы не можете редактировать свои сообщения
    Вы не можете удалять свои сообщения
    Вы не можете голосовать в опросах
    Вы не можете прикреплять файлы к сообщениям
    Вы можете скачивать файлы