2 сезон

iTunes

1 сезон

1

iTunes

iTunes

iTunes

1 сезон

RePack

30

ИГРА 18+

pack

ВАЖНО

!!Акция!!

Alien_RageХит недели

RePack

MK11
pack

Забери бонус

RePack

jed

!!Акция!!

Alien_Rage

RePack

fifa19

RePack

Assassins Creed: Odyssey

RePack

NEED FOR SPEED™ PAYBACK

4 сезон

9 сезон

Бесстыжие 9 сезон

Все сериалы

все сериалы на PB.wtf

RePack

FAR CRY 5
  

Линия жизни / Серии: 1-4 из 4 (Сергей Краснов) [2019, Драма, мелодрама, SATRip] pb.wtf

Линия жизни через торрент pb.wtf

Размер: 2.34 GB | Добавлен: 1 год назад | Торрент скачан:61 раз
Скачать  

14-10-2019 13:59 Линия жизни Скачать торрент  

Линия жизни Год выпуска: 2019
Производство: Россия, Кинокомпания «Русское», ООО «Студия Весна»
Жанр: Драма, мелодрама
Продолжительность: 4 x ~ 00:44:00
Субтитры: Отсутствуют

Режиссёр: Сергей Краснов



В ролях: Екатерина Астахова, Степан Бекетов, Алексей Демидов, Наталия Балясова, Кай Алекс Гетц, Эмилина Посохова, Игорь Захаров (IV), Владимир Ляхов (II)

Описание: Взявшись за довольно простое дело об убийстве мужчины, молодой следователь Андрей Гаврилов натыкается на целую цепочку смертей, на первый взгляд ничем не связанных между собой людей. Перед Андреем стоит задача разгадать замыслы убийцы и не дать ему совершить новые преступления.

Автор релиза:
Реклама: Отсутствует
Премьера: 12 октября 2019 года (Росссия-1) | Сэмпл |

Качество: SATRip
Формат: AVI
Видео кодек: XviD
Аудио кодек: MP3

Видео: XviD, 720x400, ~ 1700 Кбит/с, 0.236 bit/pixel
Аудио: МР3, 2 ch, 192 Кбит/с
Общее
Полное имя : D:\Линия.Жизни.XviD.2019.SATRip.7turza.Линия.Жизни.7turza.avi
Формат : AVI
Формат/Информация : Audio Video Interleave
Размер файла : 1,17 Гбайт
Продолжительность : 1 ч. 28 м.
Общий поток : 1903 Кбит/сек
Название фильма : from 7turza
Программа кодирования : Lavf58.20.100
Библиотека кодирования : VirtualDub build 35576/release

Видео
Идентификатор : 0
Формат : MPEG-4 Visual
Профиль формата : Advanced Simple@L5
Настройки формата : BVOP1
Параметр BVOP формата : 1
Параметр QPel формата : Нет
Параметр GMC формата : Без точки перехода
Параметр матрицы формата : Default (H.263)
Идентификатор кодека : XVID
Идентификатор кодека/Подсказка : XviD
Продолжительность : 1 ч. 28 м.
Битрейт : 1698 Кбит/сек
Ширина : 720 пикселей
Высота : 400 пикселей
Соотношение сторон : 16:9
Частота кадров : 25,000 кадров/сек
Цветовое пространство : YUV
Субдискретизация насыщенности : 4:2:0
Битовая глубина : 8 бит
Тип развёртки : Прогрессивная
Бит/(Пиксели*Кадры) : 0.236
Размер потока : 1,05 Гбайт (89%)
Библиотека кодирования : XviD 67

Аудио
Идентификатор : 1
Формат : MPEG Audio
Версия формата : Version 1
Профиль формата : Layer 3
Настройки формата : Joint stereo / MS Stereo
Идентификатор кодека : 55
Идентификатор кодека/Подсказка : MP3
Продолжительность : 1 ч. 28 м.
Вид битрейта : Постоянный
Битрейт : 192 Кбит/сек
Каналы : 2 канала
Частота : 48,0 КГц
Размер потока : 121 Мбайт (10%)
Выравнивание : Соединение по промежуткам
Продолжительность промежутка : 24 мс. (0,60 видеокадр)
Время предзагрузки промежутка : 504 мс.
Библиотека кодирования : LAME3.10„nX‘°‚~™XšŒ
pb.wtf



Скачать Линия жизни через торрент https://a.radikal.ru/a02/1910/8d/075d04f7977f.jpg Скачать фильм Линия жизни через торрент бесплантно в хорошем качестве Описание: Взявшись за довольно простое дело об убийстве мужчины, молодой следователь Андрей Гаврилов натыкается на целую цепочку смертей, ... 10 10 4
Торрент: Зарегистрирован [2019-10-14 13:59] · скачан: 61 раз
Статус: √ проверено
Размер: 2.34 GB
Как cкачать? Как скачать Линия жизни через торрент | qTorrent

28-11-2019 20:33  

Отключить всю рекламу на сайте

    Дорогой пользователь! Огромная просьба, поблагодарите релизера, оцените раздачу и оставьте свои комментарий, если Вы скачали Линия жизни через торрент бесплатно! Внесите свою лепту в развитие PiratBit!
    Комментировать посты могут только пользователи прошедшие не сложную регистрацию
    Показать сообщения:    

    Линия жизни через торрент
    Скачать бесплатно Линия жизни
    Линия жизни скачать торрент
    Линия жизни смотреть онлайн
    Cкачать фильм Линия жизни бесплатно
    Линия жизни скачать торрент в хорошем качестве
    Линия жизни смотреть онлайн бесплатно в хорошем качестве


    Вы не можете начинать темы
    Вы не можете отвечать на сообщения
    Вы не можете редактировать свои сообщения
    Вы не можете удалять свои сообщения
    Вы не можете голосовать в опросах
    Вы не можете прикреплять файлы к сообщениям
    Вы можете скачивать файлы