новый адрес
Мега распродажа FORZA HORIZON 4 ULTIMATE+ВСЕ DLC+ОНЛАЙН всего за 499р. 349 руб. (супер цена). Внимание количество ограничено!!!

iTunes

1+1

iTunes

мы

iTunes

1

iTunes

Чернобыль

iTunes

Ральф против интернета

Лицензия

ПШазам

Лицензия

Игра престолов

Лицензия

30
pack

ВАЖНО

!!Акция!!

Alien_RageХит недели

RePack

Resident Evil 21

ИГРА 18+

pack

RePack

Metro:Exodus

!!Акция!!

Alien_Rage

RePack

fifa19

RePack

Assassins Creed: Odyssey

RePack

NEED FOR SPEED™ PAYBACK

3 сезон

9 сезон

Бесстыжие 9 сезон

Все сериалы

все сериалы на PB.wtf

RePack

FAR CRY 5
Ребята, катастрофически не хватает 1900р. для оплаты серверов за Октябрь (всвязи с блокировками трафик упал в 3 раза), 1-2р., выручайте.
  

Буря над Азией (Камил Ярматов) [1964, СССР, военный, история, VHSRip-AVC от AVP Studio] pb.wtf

Буря над Азией через торрент pb.wtf

Раздают: 1 [ 0 KB/s ]
Размер: 1.09 GB | Добавлен: 1 мес. 5 д. назад | Торрент скачан:3 раза
Скачать  

14-10-2019 18:53 Буря над Азией Скачать торрент  

Буря над Азией
Страна: СССР
Производство: Узбекфильм

Жанр: военный, история
Год выпуска: 1964
Продолжительность: 01:29:08

Перевод: Не требуется
Cубтитры: нет
Оригинальная аудиодорожка: русский

Режиссер: Камил Ярматов

В ролях:
Шукур Бурханов, Руслан Ахметов, Анатолий Соловьёв, Аббас Бакиров, Александр Барушной, Нариман Латипов, Валерий Косенков...
Об актёрах подробней

Описание:
Историко-революционный фильм, посвященный первым годам революции и Советской власти в Узбекистане, дружбе русского народа с народами Средней Азии. В центре картины — образ народного героя, вожака восставших декхан Юсупа Ялантуша. Революционер-коммунист Василий Щукин и его друг узбекский юноша Джамал помогают Юсупу разобраться в революционных событиях и выбрать правильный путь в жизни...

Исходник: VHS
Качество видео: VHSRip-AVC
Формат видео: MKV

Видео: 680->744x558 (4:3), 25,000 кадров/сек, H264 ~ 1555 kbps avg, 0.164 bit/pixel
Аудио: 48 kHz, Dolby Digital AC3 2.0, 192 kbps

Раздача от:
Общее
Полное имя : Burya.nad.Aziei.1964.VHSRip-AVC_[New-team]_by_AVP_Studio.mkv
Формат : Matroska
Версия формата : Version 2
Размер файла : 1,09 Гбайт
Продолжительность : 1 ч. 29 м.
Общий поток : 1749 Кбит/сек
Дата кодирования : UTC 2019-09-13 17:52:58
Программа кодирования : mkvmerge v6.1.0 ('Old Devil') built on Mar 4 2013 09:10:42
Библиотека кодирования : libebml v1.3.0 + libmatroska v1.4.0

Видео
Идентификатор : 1
Формат : AVC
Формат/Информация : Advanced Video Codec
Профиль формата : High@L4.1
Настройки формата : CABAC / 10 Ref Frames
Параметр CABAC формата : Да
Параметр RefFrames формата : 10 кадров
Идентификатор кодека : V_MPEG4/ISO/AVC
Продолжительность : 1 ч. 29 м.
Битрейт : 1555 Кбит/сек
Ширина : 680 пикселей
Высота : 558 пикселей
Соотношение сторон : 4:3
Режим частоты кадров : Постоянный
Частота кадров : 25,000 кадров/сек
Цветовое пространство : YUV
Субдискретизация насыщенности : 4:2:0
Битовая глубина : 8 бит
Тип развёртки : Прогрессивная
Бит/(Пиксели*Кадры) : 0.164
Размер потока : 970 Мбайт (87%)
Библиотека кодирования : x264 core 157 r2932 303c484
Настройки программы : cabac=1 / ref=10 / deblock=1:-2:-1 / analyse=0x3:0x113 / me=umh / subme=10 / psy=1 / psy_rd=1.00:0.00 / mixed_ref=1 / me_range=32 / chroma_me=1 / trellis=2 / 8x8dct=1 / cqm=0 / deadzone=21,11 / fast_pskip=1 / chroma_qp_offset=-2 / threads=6 / lookahead_threads=1 / sliced_threads=0 / nr=0 / decimate=0 / interlaced=0 / bluray_compat=0 / constrained_intra=0 / bframes=8 / b_pyramid=2 / b_adapt=2 / b_bias=0 / direct=3 / weightb=1 / open_gop=0 / weightp=2 / keyint=250 / keyint_min=25 / scenecut=40 / intra_refresh=0 / rc=2pass / mbtree=0 / bitrate=1555 / ratetol=1.0 / qcomp=0.60 / qpmin=0 / qpmax=69 / qpstep=4 / cplxblur=20.0 / qblur=0.5 / ip_ratio=1.40 / pb_ratio=1.30 / aq=1:1.00
Default : Да
Forced : Нет

Аудио
Идентификатор : 2
Формат : AC-3
Формат/Информация : Audio Coding 3
Коммерческое название : Dolby Digital
Идентификатор кодека : A_AC3
Продолжительность : 1 ч. 29 м.
Вид битрейта : Постоянный
Битрейт : 192 Кбит/сек
Каналы : 2 канала
ChannelLayout : L R
Частота : 48,0 КГц
Частота кадров : 31,250 кадров/сек (1536 SPF)
Битовая глубина : 16 бит
Метод сжатия : С потерями
Размер потока : 122 Мбайт (11%)
Default : Да
Forced : Нет
pb.wtf



Скачать Буря над Азией через торрент http://picplus.ru/img/1910/14/b307b897.png Скачать фильм Буря над Азией через торрент бесплантно в хорошем качестве Описание:Историко-революционный фильм, посвященный первым годам революции и Советской власти в Узбекистане, дружбе русского народа с ... 10 10 1
Торрент: Зарегистрирован [2019-10-14 18:53] · скачан: 3 раз
Статус: √ проверено
Размер: 1.09 GB
Как cкачать? Как скачать Буря над Азией через торрент | qTorrent

% Раздел Тема Автор DL S | L
Кино СССР [ 1.09 GB ] Буря над Азией [1964 СССР военный история VHSRip от AVP Studio] AVP Studio Скачать
2 | 0


>> Регистрируемся здесь <<






Отзывы и комментарии о схеме читаем и пишем здесь: ---> Отзывы и комментарии о схеме

Новые благодарочки в телеграм довольных пользователей:
скриншот   скриншот   скриншот   скриншот   скриншот
    Дорогой пользователь! Огромная просьба, поблагодарите релизера, оцените раздачу и оставьте свои комментарий, если Вы скачали Буря над Азией через торрент бесплатно! Внесите свою лепту в развитие PiratBit!
    Комментировать посты могут только пользователи прошедшие не сложную регистрацию
    Показать сообщения:    

    Буря над Азией через торрент
    Скачать бесплатно Буря над Азией
    Буря над Азией скачать торрент
    Буря над Азией смотреть онлайн
    Cкачать фильм Буря над Азией бесплатно
    Буря над Азией скачать торрент в хорошем качестве
    Буря над Азией смотреть онлайн бесплатно в хорошем качестве


    Вы не можете начинать темы
    Вы не можете отвечать на сообщения
    Вы не можете редактировать свои сообщения
    Вы не можете удалять свои сообщения
    Вы не можете голосовать в опросах
    Вы не можете прикреплять файлы к сообщениям
    Вы можете скачивать файлы