Ссылка на приватное зеркало нашего сайта всего за 1$. Внимание количество ограничено!!!

2 сезон

iTunes

1 сезон

1

2 сезон

2 сезон

iTunes

1 сезон

RePack

30

Ultimate

ВАЖНО

ИГРА 18+

pack

RePack

MK11
pack

Забери бонус

RePack

jed

!!Акция!!

Alien_Rage

RePack

fifa19

RePack

Assassins Creed: Odyssey

RePack

NEED FOR SPEED™ PAYBACK

4 сезон

9 сезон

Бесстыжие 9 сезон

Все сериалы

все сериалы на PB.wtf

RePack

FAR CRY 5
  

Тачка на миллион / Driven (Ник Хэмм) [2018, Драма, биография, комедия, криминал, BD Remux 1080p] DUB (rus,ukr) [iTunes] +MVO [HDRezka Studio] pb.wtf

Тачка на миллион через торрент pb.wtf

Размер: 25.73 GB | Добавлен: 1 год 1 мес. назад | Торрент скачан:31 раз
Скачать  

15-10-2019 01:16 Тачка на миллион Скачать торрент  

Тачка на миллион / Driven«How a Lemon Became a Legend»
Год выпуска: 2018
Страна: Пуэрто Рико, Великобритания, США
Жанр: Драма, биография, комедия, криминал
Продолжительность: 01:53:53
Перевод:

#1: Дублированный | iTunes
#2: Профессиональный многоголосый | HDRezka Studio

Субтитры: Русские (Full), английские

Режиссер: Ник Хэмм

rating

В ролях: Джейсон Судейкис, Ли Пейс, Кори Столл, Джуди Грир, Эрин Мориарти, Джастин Барта, Иддо Голдберг, Майкл Кадлитц, Изабель Арраиса, Тара Саммерс

Описание: 1970-е годы. Попавшись на перевозке крупной партии кокаина, Джим Хоффман соглашается стать информатором ФБР. Он обещает сдать спецслужбам подельников и получает для проживания с женой и детьми конспиративное жильё, дом в богатом пригороде Сан-Диего. Новым соседом Джима оказывается легендарный конструктор автомобилей Джон Делореан, который готовится выпустить футуристический спорткар мечты — дешёвый, быстрый и долговечный.

Качество: BD Remux 1080p
Формат: MKV

Видео: MPEG-4 AVC, 1920x1080, 29.8 Mbit/s, 23.976 fps
Аудио#1: 48 kHz, AC3, 5.1, 384 Kbps | iTunes | RUS |
Аудио#2: 48 kHz, AC3, 2.0, 192 Kbps | HDRezka Studio | RUS |
Аудио#3: 48 kHz, AC3, 2.0, 160 Kbps | iTunes | UKR |
Аудио#4: 48 kHz, DTS-HD MA, 5.1, 1813 Kbps | Оригинал | ENG |
скриншот  скриншот  скриншот  скриншот  скриншот  

General
Unique ID : 278253909612842600973387617209901102036 (0xD155C0F04BA9F03A522DDC96E10FB3D4)
Complete name : D:Video111Driven.2018.D.MVO.BDREMUX.1080p.seleZen.mkv
Format : Matroska
Format version : Version 4
File size : 25.7 GiB
Duration : 1 h 53 min
Overall bit rate mode : Variable
Overall bit rate : 32.3 Mb/s
Movie name : Driven 2018 from селезень
Encoded date : UTC 2019-10-14 21:17:22
Writing application : mkvmerge v22.0.0 ('At The End Of The World') 64-bit
Writing library : libebml v1.3.5 + libmatroska v1.4.8

Video
ID : 1
Format : AVC
Format/Info : Advanced Video Codec
Format profile : High@L4.1
Format settings : CABAC / 4 Ref Frames
Format settings, CABAC : Yes
Format settings, Reference : 4 frames
Codec ID : V_MPEG4/ISO/AVC
Duration : 1 h 53 min
Bit rate mode : Variable
Bit rate : 29.8 Mb/s
Maximum bit rate : 33.0 Mb/s
Width : 1 920 pixels
Height : 1 080 pixels
Display aspect ratio : 16:9
Frame rate mode : Constant
Frame rate : 23.976 (24000/1001) FPS
Color space : YUV
Chroma subsampling : 4:2:0
Bit depth : 8 bits
Scan type : Progressive
Bits/(Pixel*Frame) : 0.599
Stream size : 23.7 GiB (92%)
Language : English
Default : Yes
Forced : No

Audio #1
ID : 2
Format : AC-3
Format/Info : Audio Coding 3
Commercial name : Dolby Digital
Codec ID : A_AC3
Duration : 1 h 53 min
Bit rate mode : Constant
Bit rate : 384 kb/s
Channel(s) : 6 channels
Channel layout : L R C LFE Ls Rs
Sampling rate : 48.0 kHz
Frame rate : 31.250 FPS (1536 SPF)
Bit depth : 16 bits
Compression mode : Lossy
Stream size : 313 MiB (1%)
Title : Dub [iTunes]
Language : Russian
Service kind : Complete Main
Default : Yes
Forced : Yes

Audio #2
ID : 3
Format : AC-3
Format/Info : Audio Coding 3
Commercial name : Dolby Digital
Codec ID : A_AC3
Duration : 1 h 53 min
Bit rate mode : Constant
Bit rate : 192 kb/s
Channel(s) : 2 channels
Channel layout : L R
Sampling rate : 48.0 kHz
Frame rate : 31.250 FPS (1536 SPF)
Bit depth : 16 bits
Compression mode : Lossy
Stream size : 156 MiB (1%)
Title : MVO [HDRezka Studio]
Language : Russian
Service kind : Complete Main
Default : No
Forced : No

Audio #3
ID : 4
Format : AC-3
Format/Info : Audio Coding 3
Commercial name : Dolby Digital
Codec ID : A_AC3
Duration : 1 h 53 min
Bit rate mode : Constant
Bit rate : 160 kb/s
Channel(s) : 2 channels
Channel layout : L R
Sampling rate : 48.0 kHz
Frame rate : 31.250 FPS (1536 SPF)
Bit depth : 16 bits
Compression mode : Lossy
Stream size : 130 MiB (0%)
Title : Dub [iTunes]
Language : Ukrainian
Service kind : Complete Main
Default : No
Forced : No

Audio #4
ID : 5
Format : DTS XLL
Format/Info : Digital Theater Systems
Commercial name : DTS-HD Master Audio
Codec ID : A_DTS
Duration : 1 h 53 min
Bit rate mode : Variable
Bit rate : 1 813 kb/s
Channel(s) : 6 channels
Channel layout : C L R Ls Rs LFE
Sampling rate : 48.0 kHz
Frame rate : 93.750 FPS (512 SPF)
Bit depth : 16 bits
Compression mode : Lossless
Stream size : 1.44 GiB (6%)
Title : Original
Language : English
Default : No
Forced : No

Text #1
ID : 6
Format : UTF-8
Codec ID : S_TEXT/UTF8
Codec ID/Info : UTF-8 Plain Text
Duration : 1 h 47 min
Bit rate : 121 b/s
Count of elements : 1484
Stream size : 95.6 KiB (0%)
Title : Full
Language : Russian
Default : No
Forced : No

Text #2
ID : 7
Format : UTF-8
Codec ID : S_TEXT/UTF8
Codec ID/Info : UTF-8 Plain Text
Duration : 1 h 46 min
Bit rate : 79 b/s
Count of elements : 1675
Stream size : 62.1 KiB (0%)
Title : Full
Language : English
Default : No
Forced : No

Text #3
ID : 8
Format : UTF-8
Codec ID : S_TEXT/UTF8
Codec ID/Info : UTF-8 Plain Text
Duration : 1 h 46 min
Bit rate : 85 b/s
Count of elements : 1829
Stream size : 66.4 KiB (0%)
Title : SDH
Language : English
Default : No
Forced : No

Menu
00:00:00.000 : en:Chapter 1
00:09:18.223 : en:Chapter 2
00:18:03.957 : en:Chapter 3
00:30:09.557 : en:Chapter 4
00:38:58.544 : en:Chapter 5
00:46:08.056 : en:Chapter 6
00:57:25.733 : en:Chapter 7
01:08:21.972 : en:Chapter 8
01:18:45.595 : en:Chapter 9
01:24:16.175 : en:Chapter 10
01:36:29.825 : en:Chapter 11
01:43:08.598 : en:Chapter 12

pb.wtf



Скачать Тачка на миллион через торрент https://img16.lostpic.net/2019/10/14/265f5c262e23bf7c51c4145fd3e8460f.jpg Скачать фильм Тачка на миллион через торрент бесплантно в хорошем качестве Описание: 1970-е годы. Попавшись на перевозке крупной партии кокаина, Джим Хоффман соглашается стать информатором ФБР. Он обещает сдать ... 10 10 3
Торрент: Зарегистрирован [2019-10-15 01:16] · скачан: 31 раз
Статус: √ проверено
Размер: 25.73 GB
Как cкачать? Как скачать Тачка на миллион через торрент | qTorrent

% Раздел Тема Автор DL S | L
Фильмы [HD 720p, 1080p] (Хороший звук DUB, MVO) [ 5.16 GB ] Тачка на миллион / Driven [2018 биография BDRip 720p] Dub - ExKinoRay Enigma2010 Скачать
11 | 1
Фильмы 2018 [DVDrip, WEB-DLRip, HDrip] (DUB, MVO) [ 1.41 GB ] Тачка на миллион / Driven [2018 биография BDRip] bober100 Скачать
1 | 0
Фильмы 2018 [DVDrip, WEB-DLRip, HDrip] (DUB, MVO) [ 2.25 GB ] Тачка на миллион / Driven [2018 биография BDRip-AVC] DUB +MVO [HDRezka Studio] bober100 Скачать
1 | 0
Фильмы [HD 720p, 1080p] (Хороший звук DUB, MVO) [ 11.09 GB ] Тачка на миллион / Driven [2018 биография BDRip 1080p] DUB +MVO [HDRezka Studio] bober100 Скачать
1 | 0
T Фильмы [HD 720p, 1080p] (Хороший звук DUB, MVO) [ 4.88 GB ] Тачка на миллион / Driven [2018 биография BDRip 720p] MVO [HDRezka Studio] - ExKinoRay Enigma2010 Скачать
2 | 0
T Фильмы (WEB-DL 720p, 1080p) [ 3.86 GB ] Тачка на миллион / Driven [2018 биография WEB-DL 720p] MVO [HDRezka Studio] - ExKinoRay Enigma2010 Скачать
5 | 0
T Фильмы 2018 [DVDrip, WEB-DLRip, HDrip] (DUB, MVO) [ 1.45 GB ] Тачка на миллион / Driven [2018 биография WEB-DLRip] MVO [HDRezka Studio] - ExKinoRay Enigma2010 Скачать
3 | 0

28-11-2019 20:33  

Отключить всю рекламу на сайте

    Дорогой пользователь! Огромная просьба, поблагодарите релизера, оцените раздачу и оставьте свои комментарий, если Вы скачали Тачка на миллион через торрент бесплатно! Внесите свою лепту в развитие PiratBit!
    Комментировать посты могут только пользователи прошедшие не сложную регистрацию
    Показать сообщения:    

    Тачка на миллион через торрент
    Скачать бесплатно Тачка на миллион
    Тачка на миллион скачать торрент
    Тачка на миллион смотреть онлайн
    Cкачать фильм Тачка на миллион бесплатно
    Тачка на миллион скачать торрент в хорошем качестве
    Тачка на миллион смотреть онлайн бесплатно в хорошем качестве


    Вы не можете начинать темы
    Вы не можете отвечать на сообщения
    Вы не можете редактировать свои сообщения
    Вы не можете удалять свои сообщения
    Вы не можете голосовать в опросах
    Вы не можете прикреплять файлы к сообщениям
    Вы можете скачивать файлы