новый адрес
Мега распродажа FORZA HORIZON 4 ULTIMATE+ВСЕ DLC+ОНЛАЙН всего за 499р. 349 руб. (супер цена). Внимание количество ограничено!!!

iTunes

1+1

iTunes

мы

iTunes

1

iTunes

Чернобыль

iTunes

Ральф против интернета

Лицензия

ПШазам

Лицензия

Игра престолов

Лицензия

30
pack

ВАЖНО

!!Акция!!

Alien_RageХит недели

RePack

Resident Evil 21

ИГРА 18+

pack

RePack

Metro:Exodus

!!Акция!!

Alien_Rage

RePack

fifa19

RePack

Assassins Creed: Odyssey

RePack

NEED FOR SPEED™ PAYBACK

3 сезон

9 сезон

Бесстыжие 9 сезон

Все сериалы

все сериалы на PB.wtf

RePack

FAR CRY 5
Ребята, катастрофически не хватает 1900р. для оплаты серверов за Октябрь (всвязи с блокировками трафик упал в 3 раза), 1-2р., выручайте.
  

Летят журавли (Михаил Калатозов) [1957, военный, мелодрама, история, драма, BDRemux 1080p] [FRA Transfer] - KORSAR pb.wtf

Летят журавли через торрент pb.wtf

Размер: 24.73 GB | Добавлен: 1 мес. 1 д. назад | Торрент скачан:1 раз
Скачать  

15-10-2019 14:58 Летят журавли Скачать торрент  

Летят журавли
Год выпуска: 1957
Страна: СССР
Жанр: Военный, мелодрама, история, драма
Продолжительность: 01:36:21
Перевод: Не требуется
Субтитры: Русские, английские
Режиссёр: Михаил Калатозов
В ролях: Татьяна Самойлова, Алексей Баталов, Василий Меркурьев, Александр Шворин, Светлана Харитонова, Константин Никитин, Валентин Зубков, Антонина Богданова, Борис Коковкин, Екатерина Куприянова, Валентина Ананьина, Кларина Фролова, Леонид Князев, Даниил Нетребин, Александр Попов, Николай Сморчков, Галина Степанова, Валентина Владимирова, Любовь Соколова, Саша Попов
Описание: По пьесе Виктора Розова "Вечно живые". Кинороман, получивший признание зрителей всего мира и удостоенный множества фестивальных наград, с огромной эмоциональной силой рассказывает о людях, в чьи судьбы безжалостно вторглась война, о верности и предательстве, о нравственных испытаниях, вынести которые не все смогли с честью... В центре фильма - трагическая история двух влюбленных, которых война разлучила навсегда.

rating

Качество: BDRemux 1080p
Формат: MKV
Видео: MPEG-4 AVC Video, 1920x1080, 24.000 fps, 34866 kbps
Аудио: Russian: 48 kHz, DTS-HD Ma Audio, 2.0 ch, 1867 kbps

Релиз от:


TeamHD by sergeyzp77 за исходный Blu-Ray диск.
Общее
Уникальный идентификатор : 239879462099792455677605005964604925588 (0xB4771A99DB051C17950E783DD118E694)
Полное имя : Летят.журавли.1957.BDRemux.1080p.KORSAR.mkv
Формат : Matroska
Версия формата : Version 4 / Version 2
Размер файла : 24,7 Гбайт
Продолжительность : 1 ч. 36 м.
Режим общего битрейта : Переменный
Общий поток : 36,7 Мбит/сек
Дата кодирования : UTC 2019-10-11 14:33:22
Программа кодирования : mkvmerge v7.8.0 ('River Man') 32bit built on Apr 3 2015 12:11:22
Библиотека кодирования : libebml v1.3.1 + libmatroska v1.4.2

Видео
Идентификатор : 1
Формат : AVC
Формат/Информация : Advanced Video Codec
Профиль формата : High@L4.1
Параметр CABAC формата : Да
Параметр RefFrames формата : 3 кадра
Идентификатор кодека : V_MPEG4/ISO/AVC
Продолжительность : 1 ч. 36 м.
Вид битрейта : Переменный
Битрейт : 35,0 Мбит/сек
Максимальный битрейт : 38,0 Мбит/сек
Ширина : 1920 пикселей
Высота : 1080 пикселей
Соотношение сторон : 16:9
Режим частоты кадров : Постоянный
Частота кадров : 24,000 кадра/сек
Цветовое пространство : YUV
Субдискретизация насыщенности : 4:2:0
Битовая глубина : 8 бит
Тип развёртки : Прогрессивная
Бит/(Пиксели*Кадры) : 0.703
Размер потока : 23,5 Гбайт (95%)
Библиотека кодирования : x264 core 148 r2638 7599210
Настройки программы : cabac=1 / ref=4 / deblock=1:-2:-2 / analyse=0x3:0x133 / me=umh / subme=10 / psy=1 / psy_rd=1.00:0.25 / mixed_ref=1 / me_range=24 / chroma_me=1 / trellis=2 / 8x8dct=1 / cqm=0 / deadzone=6,6 / fast_pskip=1 / chroma_qp_offset=-4 / threads=12 / lookahead_threads=1 / sliced_threads=0 / slices=4 / nr=0 / decimate=0 / interlaced=0 / bluray_compat=1 / constrained_intra=0 / bframes=3 / b_pyramid=1 / b_adapt=2 / b_bias=0 / direct=3 / weightb=1 / open_gop=1 / weightp=1 / keyint=24 / keyint_min=1 / scenecut=40 / intra_refresh=0 / rc_lookahead=24 / rc=2pass / mbtree=1 / bitrate=35000 / ratetol=1.0 / qcomp=0.80 / qpmin=0 / qpmax=69 / qpstep=4 / cplxblur=20.0 / qblur=0.5 / vbv_maxrate=38000 / vbv_bufsize=30000 / nal_hrd=vbr / filler=0 / ip_ratio=1.10 / aq=1:0.50
Язык : Russian
Default : Да
Forced : Нет
Цветовой диапазон : Limited
Основные цвета : BT.709
Характеристики трансфера : BT.709
Коэффициенты матрицы : BT.709

Аудио
Идентификатор : 2
Формат : DTS
Формат/Информация : Digital Theater Systems
Профиль формата : MA / Core
Режим : 16
Параметр Endianness формата : Big
Идентификатор кодека : A_DTS
Продолжительность : 1 ч. 36 м.
Вид битрейта : Переменный / Постоянный
Битрейт : 1867 Кбит/сек / 1509 Кбит/сек
Каналы : 2 канала
Расположение каналов : Front: L R
Частота : 48,0 КГц
Частота кадров : 93,750 кадра/сек (512 SPF)
Битовая глубина : 24 бит
Метод сжатия : Без потерь / Lossy
Размер потока : 1,26 Гбайт (5%)
Язык : Russian
Default : Да
Forced : Нет

Текст #1
Идентификатор : 3
Формат : UTF-8
Идентификатор кодека : S_TEXT/UTF8
Идентификатор кодека/Информация : UTF-8 Plain Text
Продолжительность : 1 ч. 33 м.
Битрейт : 59 бит/сек
ElementCount : 784
Размер потока : 40,6 Кбайт (0%)
Заголовок : Full
Язык : Russian
Default : Нет
Forced : Нет

Текст #2
Идентификатор : 4
Формат : UTF-8
Идентификатор кодека : S_TEXT/UTF8
Идентификатор кодека/Информация : UTF-8 Plain Text
Продолжительность : 1 ч. 35 м.
Битрейт : 40 бит/сек
ElementCount : 801
Размер потока : 27,9 Кбайт (0%)
Заголовок : Full
Язык : English
Default : Нет
Forced : Нет

Меню
00:00:00.000 : en:Chapter 1
00:19:19.625 : en:Chapter 2
00:35:30.083 : en:Chapter 3
00:48:10.875 : en:Chapter 4
01:08:49.458 : en:Chapter 5
01:21:32.291 : en:Chapter 6
pb.wtf



Скачать Летят журавли через торрент https://i3.imageban.ru/out/2019/10/15/2b5adc64db100267847eef5a23e500c1.png Скачать фильм Летят журавли через торрент бесплантно в хорошем качестве Описание: По пьесе Виктора Розова "Вечно живые". Кинороман, получивший признание зрителей всего мира и удостоенный множества фестивальных ... 10 10 1
Info! Золотая раздача, скачанное не засчитывается.
Торрент: Зарегистрирован [2019-10-15 14:58] · скачан: 1 раз
Статус: √ проверено
Размер: 24.73 GB
Как cкачать? Как скачать Летят журавли через торрент | qTorrent


>> Регистрируемся здесь <<






Отзывы и комментарии о схеме читаем и пишем здесь: ---> Отзывы и комментарии о схеме

Новые благодарочки в телеграм довольных пользователей:
скриншот   скриншот   скриншот   скриншот   скриншот
    Дорогой пользователь! Огромная просьба, поблагодарите релизера, оцените раздачу и оставьте свои комментарий, если Вы скачали Летят журавли через торрент бесплатно! Внесите свою лепту в развитие PiratBit!
    Комментировать посты могут только пользователи прошедшие не сложную регистрацию
    Показать сообщения:    

    Летят журавли через торрент
    Скачать бесплатно Летят журавли
    Летят журавли скачать торрент
    Летят журавли смотреть онлайн
    Cкачать фильм Летят журавли бесплатно
    Летят журавли скачать торрент в хорошем качестве
    Летят журавли смотреть онлайн бесплатно в хорошем качестве


    Вы не можете начинать темы
    Вы не можете отвечать на сообщения
    Вы не можете редактировать свои сообщения
    Вы не можете удалять свои сообщения
    Вы не можете голосовать в опросах
    Вы не можете прикреплять файлы к сообщениям
    Вы можете скачивать файлы