2 сезон

iTunes

MVO

1

2 сезон

iTunes

iTunes

1 сезон

RePack

30

Новинка

ВАЖНО

ИГРА 18+

pack

RePack

MK11
pack

Легкие деньги

RePack

jed

RePack

fifa19

RePack

RDR2

RePack

NEED FOR SPEED™ PAYBACK

4 сезон

9 сезон

Бесстыжие 9 сезон

Все сериалы

все сериалы на PB.wtf

RePack

FAR CRY 5

Anonymous, добрый день, мы не успеваем собрать деньги на оплату серверов за декабрь и январь, помогите нам пожалуйста в это трудное время. В качестве благодарности мы отключим Вам всю рекламу на сайте (укажите свой ник в строку Ваше имя)!

×
  
Magnet ссылка

Спарта (Николай Кудряшов) [2016, боевик, WEB-DLRip 1080p - HEVC 1080p 10 bit 60 FPS] DUB pb.wtf

Спарта через торрент pb.wtf

Размер: 2.83 GB | Добавлен: 1 год 3 мес. назад | Торрент скачан:39 раз
Скачать  

15-10-2019 15:38 Спарта Скачать торрент  

Спарта
««Без права на ошибку. Без права на реванш»»

Год выпуска: 2016
Страна: Россия
Жанр: боевик,
Продолжительность: 01:22:46
Перевод: Дубляж - [Лицензия / iTunes]
Режиссер: Николай Кудряшов
В ролях:

Денис Никифоров (Артём Коновалов), Ян Цапник (Виктор, спортивный промоутер), Владимир Епифанцев (играет самого себя), Максим Коновалов (Максим Мосин), Наталия Власова (играет саму себя), Николай Кудряшов (Николай Кудряшов), Андрей Семенов (Андрей Филатов), Михаил Малютин, Александр Шлеменко, Андрей Сычев (игрок), Сергей Воробьёв (тренер Николая Кудряшова), Кристина Нуар (Марина)
Описание:
Прямоугольный ринг и две команды бойцов друг напротив друга. Когда силы кончаются, товарища сменяет тот, кто за спиной... Это - Спарта! Новый зрелищный вид единоборств. «Спарта» для бывшего чемпиона по боям без правил Николая - единственная возможность вернуться в большой спорт и решить все проблемы, которые свалились на него три года назад: драка за честь подруги и тюрьма, предательство возлюбленной и отказ тренера в возвращении в команду. Вместе с верными друзьями спортсмен готов бросить вызов всему миру, и ставкой в бою станет его будущая жизнь.
Мировая премьера: 2 сентября 2017

Качество: WEB-DLRip 1080p Rip by DD2D3
Исходник: WEB-DL 1080p by unknown
Формат: MKV
Видео: V_MPEGH/ISO/HEVC, 1920x816 (2.35:1), 4504 kbps, 60 fps, 0,048 bpp
Аудио: русский / AC3 / 5.1 / 48 kHz / 384 kbps / ||
Навигация по главам: есть


Общее
Уникальный идентификатор : 250082909865391885495272664293394321401 (0xBC24376A81EA77B6B6D5497C472F8FF9)
Полное имя : D:\Спарта (2016) WEB-DLRip 1080p - HEVC 1080p 10 bit 60 FPS.mkv
Формат : Matroska
Версия формата : Version 4
Размер файла : 2,83 Гбайт
Продолжительность : 1 ч. 22 м.
Общий поток : 4893 Кбит/сек
Название фильма : Rip by DD2D3
Дата кодирования : UTC 2019-10-14 19:46:30
Программа кодирования : mkvmerge v10.0.0 ('To Drown In You') 32bit
Библиотека кодирования : libebml v1.3.4 + libmatroska v1.4.5
Attachments : poster

Видео
Идентификатор : 1
Формат : HEVC
Формат/Информация : High Efficiency Video Coding
Профиль формата : Main 10@L4.1@Main
Идентификатор кодека : V_MPEGH/ISO/HEVC
Продолжительность : 1 ч. 22 м.
Битрейт : 4505 Кбит/сек
Ширина : 1920 пикселей
Высота : 816 пикселей
Соотношение сторон : 2,35:1
Режим частоты кадров : Постоянный
Частота кадров : 60,000 кадров/сек
Цветовое пространство : YUV
Субдискретизация насыщенности : 4:2:0
Битовая глубина : 10 бит
Бит/(Пиксели*Кадры) : 0.048
Размер потока : 2,60 Гбайт (92%)
Библиотека кодирования : x265 2.3+33-0b7d54dbb71a87a0:[Windows][MSVC 1800][64 bit] 10bit: KG7x [x265.ru]
Настройки программы : cpuid=1173503 / frame-threads=2 / numa-pools=4 / wpp / no-pmode / no-pme / no-psnr / no-ssim / log-level=2 / input-csp=1 / input-res=1920x816 / interlace=0 / total-frames=297958 / level-idc=41 / high-tier=1 / uhd-bd=0 / ref=3 / no-allow-non-conformance / no-repeat-headers / annexb / no-aud / no-hrd / info / hash=0 / no-temporal-layers / open-gop / min-keyint=25 / keyint=250 / bframes=4 / b-adapt=2 / b-pyramid / bframe-bias=0 / rc-lookahead=20 / lookahead-slices=5 / scenecut=40 / no-intra-refresh / ctu=64 / min-cu-size=8 / no-rect / no-amp / max-tu-size=32 / tu-inter-depth=1 / tu-intra-depth=1 / limit-tu=0 / rdoq-level=0 / dynamic-rd=0.00 / no-ssim-rd / signhide / no-tskip / nr-intra=0 / nr-inter=0 / no-constrained-intra / strong-intra-smoothing / max-merge=2 / limit-refs=3 / no-limit-modes / me=1 / subme=2 / merange=57 / temporal-mvp / weightp / no-weightb / no-analyze-src-pics / deblock=0:0 / no-sao / no-sao-non-deblock / rd=3 / no-early-skip / no-rskip / no-fast-intra / no-tskip-fast / no-cu-lossless / no-b-intra / rdpenalty=0 / psy-rd=4.00 / psy-rdoq=0.00 / no-rd-refine / analysis-mode=0 / no-lossless / cbqpoffs=0 / crqpoffs=0 / rc=abr / bitrate=4500 / qcomp=0.60 / qpstep=1 / stats-write=0 / stats-read=2 / cplxblur=20.0 / qblur=0.5 / ipratio=1.10 / pbratio=1.00 / aq-mode=0 / aq-strength=0.00 / no-cutree / zone-count=0 / no-strict-cbr / qg-size=64 / rc-grain / qpmax=69 / qpmin=0 / sar=1 / overscan=0 / videoformat=5 / range=0 / colorprim=2 / transfer=2 / colormatrix=2 / chromaloc=0 / display-window=0 / max-cll=0,0 / min-luma=0 / max-luma=1023 / log2-max-poc-lsb=8 / vui-timing-info / vui-hrd-info / slices=1 / opt-qp-pps / opt-ref-list-length-pps / no-multi-pass-opt-rps / scenecut-bias=0.05 / no-opt-cu-delta-qp / no-aq-motion / no-hdr / no-hdr-opt / refine-level=5 / no-limit-sao
Default : Да
Forced : Нет

Аудио
Идентификатор : 2
Формат : AC-3
Формат/Информация : Audio Coding 3
Коммерческое название : Dolby Digital
Идентификатор кодека : A_AC3
Продолжительность : 1 ч. 22 м.
Вид битрейта : Постоянный
Битрейт : 384 Кбит/сек
Каналы : 6 каналов
Channel layout : L R C LFE Ls Rs
Частота : 48,0 КГц
Частота кадров : 31,250 кадров/сек (1536 SPF)
Битовая глубина : 16 бит
Метод сжатия : С потерями
Размер потока : 227 Мбайт (8%)
Язык : Russian
ServiceKind/String : Complete Main
Default : Да
Forced : Нет

Меню
00:00:00.000 : en:Глава 1
00:07:05.280 : en:Глава 2
00:13:48.880 : en:Глава 3
00:20:25.280 : en:Глава 4
00:27:00.320 : en:Глава 5
00:32:53.880 : en:Глава 6
00:38:38.640 : en:Глава 7
00:44:47.240 : en:Глава 8
00:50:52.240 : en:Глава 9
00:57:14.240 : en:Глава 10
01:02:50.760 : en:Глава 11
01:08:57.920 : en:Глава 12
01:14:26.720 : en:Глава 13
скриншот  скриншот  скриншот  скриншот  скриншот  скриншот  

© Оформление by DD2D3 pb.wtf



Скачать Спарта через торрент https://funkyimg.com/i/2XPpv.jpg Скачать фильм Спарта через торрент бесплантно в хорошем качестве Описание: Прямоугольный ринг и две команды бойцов друг напротив друга. Когда силы кончаются, товарища сменяет тот, кто за спиной... Это - ... 1 10 1
Торрент: Зарегистрирован [2019-10-15 15:38] · скачан: 39 раз
Статус: √ проверено
Размер: 2.83 GB
Как cкачать? Как скачать Спарта через торрент | UTorrent

% Раздел Тема Автор DL S | L
Ultra HD (UHD: 2K, 4K, 8K) — видео сверхвысокой чёткости [ 56.14 GB ] 300 Спартанцев / 300 [2006 военный исторический UHD BDRemux 2160p] DUB [] +DVO+2xAVO+MVO bober100 Скачать
1 | 0
Ultra HD (UHD: 2K, 4K, 8K) — видео сверхвысокой чёткости [ 74.62 GB ] Спартак / Spartacus [1960 Исторический UHD BDRemux 2160p ] [GER Transfer] DUB+MVO+DVO+AVO bober100 Скачать
1 | 0
Ultra HD (UHD: 2K, 4K, 8K) — видео сверхвысокой чёткости [ 61.01 GB ] Спартак / Spartacus [1960 военный биография история UHD BDRemux 2160p] от селезень GER Transfer Russian Mafia Скачать
1 | 0
Зарубежные сериалы [ 33.37 GB ] Спартак / Spartacus / Сезон: 1-4 / Серии: 1-39 из 39 [2010 исторический HDRip] DUB [Рен-ТВ] bober100 Скачать
1 | 0
Сборники (HD Video) [ 15.21 GB ] 300 спартанцев: Дилогия / 300: Dilogy [2013 BDRip 720p] DUB AVO potroks Скачать
1 | 0
Зарубежные сериалы [ 8.99 GB ] Спартак: Боги Арены / Spartacus: Gods of the Arena [2011 историческая BDRip-AVC] DUB + MVO + Original + Sub ruseng wekotila Скачать
1 | 0
Зарубежные сериалы [ 69.76 GB ] Спартак: кровь и песок / Spartacus: Blood and Sand / 1 сезон / 01-13 серии [2010 BDRip 1080p] dub LostFilm + sub rus/eng genkasper Скачать
1 | 0

28-11-2019 20:33  

Отключить всю рекламу на сайте

    Дорогой пользователь! Огромная просьба, поблагодарите релизера, оцените раздачу и оставьте свои комментарий, если Вы скачали Спарта через торрент бесплатно! Внесите свою лепту в развитие PiratBit!
    Комментировать посты могут только пользователи прошедшие не сложную регистрацию
    Показать сообщения:    

    Спарта через торрент
    Скачать бесплатно Спарта
    Спарта скачать торрент
    Спарта смотреть онлайн
    Cкачать фильм Спарта бесплатно
    Спарта скачать торрент в хорошем качестве
    Спарта смотреть онлайн бесплатно в хорошем качестве


    Вы не можете начинать темы
    Вы не можете отвечать на сообщения
    Вы не можете редактировать свои сообщения
    Вы не можете удалять свои сообщения
    Вы не можете голосовать в опросах
    Вы не можете прикреплять файлы к сообщениям
    Вы можете скачивать файлы