Ссылка на приватное зеркало нашего сайта всего за 1$. Внимание количество ограничено!!!

2 сезон

iTunes

1 сезон

1

iTunes

iTunes

iTunes

1 сезон

RePack

30

ИГРА 18+

pack

ВАЖНО

!!Акция!!

Alien_RageХит недели

RePack

MK11
pack

Забери бонус

RePack

jed

!!Акция!!

Alien_Rage

RePack

fifa19

RePack

Assassins Creed: Odyssey

RePack

NEED FOR SPEED™ PAYBACK

4 сезон

9 сезон

Бесстыжие 9 сезон

Все сериалы

все сериалы на PB.wtf

RePack

FAR CRY 5
  

Медвежатники / Safe Men (Джон Гамбург) [1998, комедия, криминал, DVDRemux] [MVO] (1 канал, R2, Universal Pictures UK) + [DVO] (Премьер) pb.wtf

Медвежатники через торрент pb.wtf

Размер: 4.2 GB | Добавлен: 1 год назад | Торрент скачан:2 раза
Скачать  

15-10-2019 17:50 Медвежатники Скачать торрент  

Медвежатники / Safe Men

Страна: США
Жанр: комедия, криминал
Год выпуска: 1998
Продолжительность: 01:24:15
Перевод 1: Профессиональный (многоголосый закадровый) 1 канал с DVD9 R2, Universal Pictures UK
Перевод 2: Профессиональный (двухголосый закадровый) Премьер
Субтитры: английские
Режиссер: Джон Гамбург / John Hamburg
В ролях: Сэм Рокуэлл, Стив Зан, Майкл Лернер, Пол Джаматти, Майкл Шмидт, Кристина Кирк, Марк Руффало, Джош Пэйс, Харви Файерстин, Майкл Шоуолтер
Описание: Сэм и Эдди — два бестолковых и безголосых певца — любителя, в очередной раз потерпев фиаско на сцене, решают бросить музыку. Но их жизнь круто меняется после того, как они встречают крупного босса мафии, перепутавшего парочку с профессиональными взломщиками сейфов.

Пригрозив жестокой расправой, мафиози приказывает горе — дуэту ограбить три сейфа, в одном из которых хранится престижный хоккейный кубок «Стэнли». Смогут ли Сэм и Эдди проявить себя на новом криминальном поприще и справиться с опасным заданием?
rating

Сэмпл
Качество видео: DVDRemux
Формат видео: MKV
Видео: MPEG 2, 720x576@1024×576 (16:9 - 1.85:1), 25,000 fps, 5914 Kbps
Аудио 1: AC3, 48,0 kHz, 6 ch, 384 kbps | MVO, 1 канал с DVD9 R2, Universal Pictures UK
Аудио 2: AC3, 48,0 kHz, 2 ch, 192 kbps | DVO, Премьер
Аудио 3: AC3, 48,0 kHz, 6 ch, 448 kbps | English
Аудио 4: AC3, 48,0 kHz, 2 ch, 192 kbps | Commentary
Формат субтитров: softsub (SRT)
Общее
Полное имя : Safe.Men.1998.DVDREMUX.-Kyle.mkv
Формат : Matroska
Версия формата : Version 4
Размер файла : 4,20 Гбайт
Продолжительность : 1 ч. 24 м.
Режим общего битрейта : Переменный
Общий поток : 7131 Кбит/сек
Дата кодирования : UTC 2019-09-18 08:14:45
Программа кодирования : mkvmerge v37.0.0 ('Leave It') 32-bit
Библиотека кодирования : libebml v1.3.9 + libmatroska v1.5.2

Видео
Идентификатор : 1
Формат : MPEG Video
Версия формата : Version 2
Профиль формата : Main@Main
Настройки формата : CustomMatrix / BVOP
Параметр BVOP формата : Да
Параметр матрицы формата : Выборочная
Параметр GOP формата : M=3, N=12
Структура изображения : Frame
Идентификатор кодека : V_MPEG2
Идентификатор кодека/Информация : MPEG 1 or 2 Video
Продолжительность : 1 ч. 24 м.
Вид битрейта : Переменный
Битрейт : 5914 Кбит/сек
Максимальный битрейт : 7112 Кбит/сек
Ширина : 720 пикселей
Высота : 576 пикселей
Соотношение сторон : 16:9
Соотношение сторон в оригинале : 16:9
Режим частоты кадров : Постоянный
Частота кадров : 25,000 кадров/сек
Стандарт вещания : PAL
Цветовое пространство : YUV
Субдискретизация насыщенности : 4:2:0
Битовая глубина : 8 бит
Тип развёртки : Чересстрочная
Порядок развёртки : Верхнее поле первое
Метод сжатия : С потерями
Бит/(Пиксели*Кадры) : 0.570
Временной код первого кадра : 09:59:59:00
Оригинал временного кода : Group of pictures header
GOP, открыто/закрыто : Открыто
GOP, открыто/закрыто на первом кадре : Закрыто
Размер потока : 3,48 Гбайт (83%)
Заголовок : English
Язык : English
Default : Да
Forced : Нет

Аудио #1
Идентификатор : 2
Формат : AC-3
Формат/Информация : Audio Coding 3
Коммерческое название : Dolby Digital
Идентификатор кодека : A_AC3
Продолжительность : 1 ч. 24 м.
Вид битрейта : Постоянный
Битрейт : 384 Кбит/сек
Каналы : 6 каналов
ChannelLayout : L R C LFE Ls Rs
Частота : 48,0 КГц
Частота кадров : 31,250 кадров/сек (1536 SPF)
Метод сжатия : С потерями
Размер потока : 231 Мбайт (5%)
Заголовок : Russian
Язык : Russian
ServiceKind/String : Complete Main
Default : Да
Forced : Нет

Аудио #2
Идентификатор : 3
Формат : AC-3
Формат/Информация : Audio Coding 3
Коммерческое название : Dolby Digital
Идентификатор кодека : A_AC3
Продолжительность : 1 ч. 23 м.
Вид битрейта : Постоянный
Битрейт : 192 Кбит/сек
Каналы : 2 канала
ChannelLayout : L R
Частота : 48,0 КГц
Частота кадров : 31,250 кадров/сек (1536 SPF)
Метод сжатия : С потерями
Размер потока : 115 Мбайт (3%)
Заголовок : Премьер
Язык : Russian
ServiceKind/String : Complete Main
Default : Нет
Forced : Нет

Аудио #3
Идентификатор : 4
Формат : AC-3
Формат/Информация : Audio Coding 3
Коммерческое название : Dolby Digital
Идентификатор кодека : A_AC3
Продолжительность : 1 ч. 24 м.
Вид битрейта : Постоянный
Битрейт : 448 Кбит/сек
Каналы : 6 каналов
ChannelLayout : L R C LFE Ls Rs
Частота : 48,0 КГц
Частота кадров : 31,250 кадров/сек (1536 SPF)
Метод сжатия : С потерями
Размер потока : 270 Мбайт (6%)
Заголовок : English
Язык : English
ServiceKind/String : Complete Main
Default : Нет
Forced : Нет

Аудио #4
Идентификатор : 5
Формат : AC-3
Формат/Информация : Audio Coding 3
Коммерческое название : Dolby Digital
Идентификатор кодека : A_AC3
Продолжительность : 1 ч. 24 м.
Вид битрейта : Постоянный
Битрейт : 192 Кбит/сек
Каналы : 2 канала
ChannelLayout : L R
Частота : 48,0 КГц
Частота кадров : 31,250 кадров/сек (1536 SPF)
Метод сжатия : С потерями
Размер потока : 116 Мбайт (3%)
Заголовок : Commentary /
Язык : English
ServiceKind/String : Complete Main
Default : Нет
Forced : Нет

Текст
Идентификатор : 6
Формат : UTF-8
Идентификатор кодека : S_TEXT/UTF8
Идентификатор кодека/Информация : UTF-8 Plain Text
Продолжительность : 1 ч. 23 м.
Битрейт : 89 бит/сек
ElementCount : 1356
Размер потока : 55,0 Кбайт (0%)
Заголовок : English
Язык : English
Default : Нет
Forced : Нет

Меню
00:00:00.000 : :Chapter 1
00:05:19.160 : :Chapter 2
00:07:54.640 : :Chapter 3
00:11:48.840 : :Chapter 4
00:16:58.440 : :Chapter 5
00:23:19.200 : :Chapter 6
00:26:55.480 : :Chapter 7
00:32:55.160 : :Chapter 8
00:38:30.280 : :Chapter 9
00:44:52.560 : :Chapter 10
00:48:06.920 : :Chapter 11
00:52:27.600 : :Chapter 12
00:56:44.320 : :Chapter 13
00:59:49.400 : :Chapter 14
01:03:49.600 : :Chapter 15
01:07:23.600 : :Chapter 16
01:11:07.880 : :Chapter 17
01:18:58.480 : :Chapter 18
скриншот  скриншот  скриншот  
pb.wtf



Скачать Медвежатники через торрент https://i90.fastpic.ru/big/2019/0918/29/b1c87c97bcdbc253894118dbccbe7929.jpg Скачать фильм Медвежатники через торрент бесплантно в хорошем качестве Описание: Сэм и Эдди — два бестолковых и безголосых певца — любителя, в очередной раз потерпев фиаско на сцене, решают бросить музыку. Но ... 10 10 1
Торрент: Зарегистрирован [2019-10-15 17:50] · скачан: 2 раз
Статус: √ проверено
Размер: 4.2 GB
Как cкачать? Как скачать Медвежатники через торрент | qTorrent

28-11-2019 20:33  

Отключить всю рекламу на сайте

    Дорогой пользователь! Огромная просьба, поблагодарите релизера, оцените раздачу и оставьте свои комментарий, если Вы скачали Медвежатники через торрент бесплатно! Внесите свою лепту в развитие PiratBit!
    Комментировать посты могут только пользователи прошедшие не сложную регистрацию
    Показать сообщения:    

    Медвежатники через торрент
    Скачать бесплатно Медвежатники
    Медвежатники скачать торрент
    Медвежатники смотреть онлайн
    Cкачать фильм Медвежатники бесплатно
    Медвежатники скачать торрент в хорошем качестве
    Медвежатники смотреть онлайн бесплатно в хорошем качестве


    Вы не можете начинать темы
    Вы не можете отвечать на сообщения
    Вы не можете редактировать свои сообщения
    Вы не можете удалять свои сообщения
    Вы не можете голосовать в опросах
    Вы не можете прикреплять файлы к сообщениям
    Вы можете скачивать файлы