2 сезон

iTunes

MVO

1

2 сезон

iTunes

iTunes

1 сезон

RePack

30

Новинка

ВАЖНО

ИГРА 18+

pack

RePack

MK11
pack

Легкие деньги

RePack

jed

RePack

fifa19

RePack

RDR2

RePack

NEED FOR SPEED™ PAYBACK

4 сезон

9 сезон

Бесстыжие 9 сезон

Все сериалы

все сериалы на PB.wtf

RePack

FAR CRY 5

Anonymous, доброй ночи, мы не успеваем собрать деньги на оплату серверов за декабрь и январь, помогите нам пожалуйста в это трудное время. В качестве благодарности мы отключим Вам всю рекламу на сайте (укажите свой ник в строку Ваше имя)!

×
  
Magnet ссылка

Террор / The Terror / Сезон: 2 / Серии: 1-10 из 10 (Тим Милантс, Эдвард Бергер, Серджо Мимика-Геззан) [2019, ужасы, драма, WEB-DL 1080p] MVO [AMS] pb.wtf

Террор через торрент pb.wtf

Размер: 28.24 GB | Добавлен: 1 год 3 мес. назад | Торрент скачан:8 раз
Скачать  

15-10-2019 19:08 Террор Скачать торрент  

Террор / The Terror Год выпуска: 2019
Страна: США
Жанр: Ужасы, драма
Продолжительность: ~ 00:45:00
Перевод: Профессиональный многоголосый закадровый | AMS
Субтитры: английские (Softsub SRT)

Режиссёр: Тим Милантс, Эдвард Бергер, Серджо Мимика-Геззан

В ролях: Джаред Харрис, Тобайас Мензис, Киран Хайндс, Пол Рэди, Адам Нагаитис, Иэн Харт, Нив Нилсен, Кристос Лоутон, Себастьян Арместо, Jack Colgrave Hirst и другие

Описание:
В 1942 году на калифорнийском острове Терминал в местной японской общине происходит самоубийство женщины, после чего некоторые начинают считать, что тут объявилась бакэмоно — древняя японская нечисть, способная менять форму. Вскоре президент США санкционировал интернирование, в результате около 120 тысяч живших в Америке японцев были насильственно выселены с Тихоокеанского побережья и помещены в специальные лагеря. Вместе с интернированными туда пробралось и зло.



Качество: WEB-DL 1080p
Формат: MKV

Видео: MPEG-4 AVC, 1920x1080, 16:9, ~7071-10000 Кбит/с (переменный), 23.976 fps, ~0.121-0.165 bit/pixel
Аудио 1: Русский, AC3, 48.0 KHz, 6 channels, 640 Kbps
Аудио 2: Английский, AC3, 48.0 KHz, 6 channels, 640 Kbps


Реклама: Присутствует звуковая (два раза: в начале и конце по 9 сек)
General
Unique ID : 303231226238311832128100635565262969849 (0xE42035B9F2347FC7BD7C447B70451BF9)
Complete name : /The.Terror.S02.1080p.WEB-DL.AMS/The.Terror.S02E01.1080p.WEB-DL.AMS.mkv
Format : Matroska
Format version : Version 4
File size : 3.01 GiB
Duration : 51mn 37s
Overall bit rate : 8 353 Kbps
Movie name : The Terror 2x01
Encoded date : UTC 2019-08-17 12:24:05
Writing application : mkvmerge v8.2.0 ('World of Adventure') 64bit
Writing library : libebml v1.3.1 + libmatroska v1.4.2

Video
ID : 1
Format : AVC
Format/Info : Advanced Video Codec
Format profile : High@L4
Format settings : CABAC / 4 Ref Frames
Format settings, CABAC : Yes
Format settings, ReFrames : 4 frames
Codec ID : V_MPEG4/ISO/AVC
Duration : 51mn 37s
Bit rate mode : Constant
Bit rate : 7 071 Kbps
Nominal bit rate : 10 000 Kbps
Width : 1 920 pixels
Height : 1 080 pixels
Display aspect ratio : 16:9
Frame rate mode : Constant
Frame rate : 23.976 (24000/1001) fps
Color space : YUV
Chroma subsampling : 4:2:0
Bit depth : 8 bits
Scan type : Progressive
Bits/(Pixel*Frame) : 0.142
Stream size : 2.55 GiB (85%)
Title : The Terror 2x01
Default : Yes
Forced : No
Color range : Limited
Color primaries : BT.709
Transfer characteristics : BT.709
Matrix coefficients : BT.709

Audio #1
ID : 2
Format : AC-3
Format/Info : Audio Coding 3
Commercial name : Dolby Digital
Codec ID : A_AC3
Duration : 51mn 37s
Bit rate mode : Constant
Bit rate : 640 Kbps
Channel(s) : 6 channels
Channel layout : L R C LFE Ls Rs
Sampling rate : 48.0 KHz
Frame rate : 31.250 fps (1536 SPF)
Bit depth : 16 bits
Compression mode : Lossy
Stream size : 236 MiB (8%)
Title : MVO AMS
Language : Russian
Service kind : Complete Main
Default : Yes
Forced : No

Audio #2
ID : 3
Format : E-AC-3
Format/Info : Enhanced AC-3
Commercial name : Dolby Digital Plus
Codec ID : A_EAC3
Duration : 51mn 37s
Bit rate mode : Constant
Bit rate : 640 Kbps
Channel(s) : 6 channels
Channel layout : L R C LFE Ls Rs
Sampling rate : 48.0 KHz
Frame rate : 31.250 fps (1536 SPF)
Compression mode : Lossy
Stream size : 236 MiB (8%)
Title : Original
Language : English
Service kind : Complete Main
Default : No
Forced : No

Text
ID : 4
Format : UTF-8
Codec ID : S_TEXT/UTF8
Codec ID/Info : UTF-8 Plain Text
Duration : 45mn 34s
Bit rate : 40 bps
Count of elements : 493
Stream size : 13.5 KiB (0%)
Title : Eng-Subs
Language : English
Default : No
Forced : No
Внимание! Раздача ведётся путём добавления новых серий; при каждом добавлении создаётся новый торрент. Чтобы начать докачку новой серии, пользователям необходимо сделать следующее:

1) остановить скачивание,
2) удалить старый торрент у себя из клиента (старые серии удалять не надо),
3) скачать новый торрент и запустить его у себя в клиенте вместо старого, при этом указать клиенту путь в старую папку куда и должно происходить скачивание новых серий.

Ваш клиент при этом должен произвести хеширование (проверку) старой папки (если не производит сам - помогите ему сделать это), и будет докачивать только те серии которых у вас ещё нет. Старые серии при этом не удаляются, а продолжают раздаваться!

Eсли вы уже удалили старые серии, то предотвратить повторную закачку старых серий можно, отжав галочку в соответствующих местах при запуске нового торрента. По возможности, желательно не удалять старые серии как можно дольше чтобы релизёр не столько продолжал раздавать старые серии, а смог сконцентрироваться на новых.»[url=viewtopic.php?t=609808]Как закачать отдельный файл из торрента или докачать ранее пропущенные файлы торрента![/url]«
pb.wtf



Скачать Террор через торрент https://d.radikal.ru/d16/1908/42/9427630d9848.jpg Скачать фильм Террор через торрент бесплантно в хорошем качестве Описание:В 1942 году на калифорнийском острове Терминал в местной японской общине происходит самоубийство женщины, после чего некоторые ... 10 10 2
Торрент: Зарегистрирован [2019-10-15 19:08] · скачан: 8 раз
Статус: √ проверено
Размер: 28.24 GB
Как cкачать? Как скачать Террор через торрент | UTorrent

% Раздел Тема Автор DL S | L
Зарубежные сериалы [ 17.77 GB ] Террор / The Terror / Сезон: 2 / Серия: 1-10 из 10 [2019 история WEB-DL 720p] 4x[MVO] killermax2013 Скачать
1 | 0
Зарубежные сериалы [ 8.75 GB ] Террор / The Terror / Сезон: 2 / Серии: 1-10 из 10 [2019 WEB-DLRip] [MVO] killermax2013 Скачать
1 | 0
Зарубежные сериалы [ 14.77 GB ] Террор / The Terror / Сезон: 2 / Серии: 1-10 из 10 [2019 WEBRip 720p] [DVO] killermax2013 Скачать
1 | 0
Зарубежные сериалы [ 7.34 GB ] Террор / The Terror / Сезон: 2 / Серии: 1-10 из 10 [2019 WEB-DLRip] MVO [TVShows] bober100 Скачать
1 | 0
Зарубежные сериалы [ 14.77 GB ] Террор / The Terror / Сезон: 2 / Серии: 1-10 из 10 [2019 WEB-DL 720p] MVO [LostFilm] bober100 Скачать
2 | 0
Зарубежные сериалы [ 14.24 GB ] Террор / The Terror / Сезон: 2 / Серии: 1-10 из 10 [2019 WEB-DL 720p] [MVO] killermax2013 Скачать
1 | 0
Зарубежные сериалы [ 13.39 GB ] Террор / The Terror / Сезон: 2 / Серии: 1-10 из 10 [2019 WEB-DL 720p] MVO [AlexFilm] bober100 Скачать
1 | 0

28-11-2019 20:33  

Отключить всю рекламу на сайте

    Дорогой пользователь! Огромная просьба, поблагодарите релизера, оцените раздачу и оставьте свои комментарий, если Вы скачали Террор через торрент бесплатно! Внесите свою лепту в развитие PiratBit!
    Комментировать посты могут только пользователи прошедшие не сложную регистрацию
    Показать сообщения:    

    Террор через торрент
    Скачать бесплатно Террор
    Террор скачать торрент
    Террор смотреть онлайн
    Cкачать фильм Террор бесплатно
    Террор скачать торрент в хорошем качестве
    Террор смотреть онлайн бесплатно в хорошем качестве


    Вы не можете начинать темы
    Вы не можете отвечать на сообщения
    Вы не можете редактировать свои сообщения
    Вы не можете удалять свои сообщения
    Вы не можете голосовать в опросах
    Вы не можете прикреплять файлы к сообщениям
    Вы можете скачивать файлы