Ссылка на приватное зеркало нашего сайта всего за 1$. Внимание количество ограничено!!!

2 сезон

iTunes

1 сезон

1

iTunes

iTunes

iTunes

1 сезон

RePack

30

ИГРА 18+

pack

ВАЖНО

!!Акция!!

Alien_RageХит недели

RePack

MK11
pack

Забери бонус

RePack

jed

!!Акция!!

Alien_Rage

RePack

fifa19

RePack

Assassins Creed: Odyssey

RePack

NEED FOR SPEED™ PAYBACK

4 сезон

9 сезон

Бесстыжие 9 сезон

Все сериалы

все сериалы на PB.wtf

RePack

FAR CRY 5
  

Форс-мажор / Старший по мафии / Сезон: 1 / Серии: 1-10 из 10 (Александр Жигалкин) [2019, Комедия, криминал, WEB-DLRip] pb.wtf

Форс-мажор через торрент pb.wtf

Размер: 6.83 GB | Добавлен: 1 год назад | Торрент скачан:169 раз
Скачать  

15-10-2019 20:10 Форс-мажор Скачать торрент  

Форс-мажор / Старший по мафии
Год выпуска: 2019
Страна: Россия
Жанр: Комедия, криминал
Продолжительность: ~ 00:48:00
Субтитры: отсутствуют

Режиссер: Александр Жигалкин



В ролях: Павел Прилучный, Галина Петрова, Диана Пожарская, Илья Глинников, Александр Ильин, Сергей Лавыгин, Федор Добронравов, Владимир Сычев, Александр Ильин мл., Дмитрий Мальцев

Описание: Главный герой сериала — обычный медбрат Витя, который работает в клинике пластической хирургии. Скромный, безотказный молодой человек привык подчиняться всем, включая мать и друзей. Однажды в клинику, где он работает, обращается местный мафиози Терапевт. Глава криминального клана хочет сменить внешность, чтобы скрыться от полиции. Но во время операции авторитет умирает. Витя уверен, что в его смерти виноват он, и теперь ему грозит месть всего бандитского мира. На помощь приходит верный друг Артём. Он предлагает Вите неожиданный выход — стать Терапевтом — и втягивает молодого человека в авантюру, которая полностью перевернет его жизнь.

Качество: WEB-DLRip
Формат: AVI

Видео: 720x400 (1.80:1), 25 fps, XviD build 73 ~1800 kbps avg, 0.25 bit/pixel
Аудио: 48 kHz, AC3 Dolby Digital, 2/0 (L,R) ch, ~192 kbps
скриншот  скриншот  скриншот  скриншот  

Общее
Полное имя : C:\Downloads\Fors.mazhor.(2017).WEB-DLRip.ExKinoRay\Fors.mazhor.e01.(2017).WEB-DLRip.ExKinoRay.avi
Формат : AVI
Формат/Информация : Audio Video Interleave
Размер файла : 699 Мбайт
Продолжительность : 51 м. 18 с.
Общий поток : 1905 Кбит/сек
Программа кодирования : VirtualDubMod 1.5.10.2 (build 2540/release)
Библиотека кодирования : VirtualDubMod build 2540/release

Видео
Идентификатор : 0
Формат : MPEG-4 Visual
Профиль формата : Advanced Simple@L5
Настройки формата : BVOP1 / Custom Matrix
Параметр BVOP формата : 1
Параметр QPel формата : Нет
Параметр GMC формата : Без точки перехода
Параметр матрицы формата : Выборочная
Идентификатор кодека : XVID
Идентификатор кодека/Подсказка : XviD
Продолжительность : 51 м. 18 с.
Битрейт : 1729 Кбит/сек
Ширина : 720 пикселей
Высота : 400 пикселей
Соотношение сторон : 16:9
Частота кадров : 25,000 кадров/сек
Цветовое пространство : YUV
Субдискретизация насыщенности : 4:2:0
Битовая глубина : 8 бит
Тип развёртки : Прогрессивная
Метод сжатия : С потерями
Бит/(Пиксели*Кадры) : 0.226
Размер потока : 598 Мбайт (85%)
Библиотека кодирования : XviD 73

Аудио
Идентификатор : 1
Формат : AC-3
Формат/Информация : Audio Coding 3
Коммерческое название : Dolby Digital
Идентификатор кодека : 2000
Продолжительность : 51 м. 12 с.
Вид битрейта : Постоянный
Битрейт : 192 Кбит/сек
Каналы : 2 канала
ChannelLayout : L R
Частота : 48,0 КГц
Частота кадров : 31,250 кадров/сек (1536 SPF)
Битовая глубина : 16 бит
Метод сжатия : С потерями
Размер потока : 70,3 Мбайт (10%)
Выравнивание : Разделение по промежуткам
ServiceKind/String : Complete Main

Когда раздача ведётся путём добавления новых серий, при каждом добавлении создётся новый торрент. Чтобы начать докачку новой серии, пользователям необходимо сделать следующее:
(1) остановить скачивание,
(2) удалить старый торрент у себя из клиента (старые серии удалять не надо),
(3) скачать новый торрент и запустить его у себя в клиенте вместо старого, при этом указать клиенту путь в старую папку, куда и должно происходить скачивание новых серий.
Ваш клиент при этом должен произвести хеширование (проверку) старой папки (если не производит сам - помогите ему сделать это), и будет докачивать только те серии, которых у вас ещё нет. Старые серии при этом не удаляются, а продолжают раздаваться!
Eсли вы уже удалили старые серии, то предотвратить повторную закачку старых серий можно, отжав галочку в соответсвующих местах при запуске нового торрента. По возможности, желательно не удалять старые серии как можно дольше, чтобы релизёр не столько продолжал раздавать старые серии, а смог сконцентрироваться на новых.
pb.wtf



Скачать Форс-мажор через торрент http://b.radikal.ru/b18/1910/c8/231eea4a7132.jpg Скачать фильм Форс-мажор через торрент бесплантно в хорошем качестве Описание: Главный герой сериала — обычный медбрат Витя, который работает в клинике пластической хирургии. Скромный, безотказный молодой ... 10 10 9
Торрент: Зарегистрирован [2019-10-22 06:16] · скачан: 169 раз
Статус: √ проверено
Размер: 6.83 GB
Как cкачать? Как скачать Форс-мажор через торрент | qTorrent

% Раздел Тема Автор DL S | L
Наши сериалы [ 9.45 GB ] Форс-мажор / Старший по мафии / Сезон: 1 / Серии: 1-10 из 10 [2019 WEB-DLRip-AVC] bober100 Скачать
3 | 0
Наши сериалы [ 12.96 GB ] Форс-мажор / Старший по мафии / Сезон: 1 / Серии: 1-10 из 10 [2019 WEB-DL 720p] bober100 Скачать
1 | 0
Наши сериалы [ 21.73 GB ] Форс-мажор / Старший по мафии / Сезон: 1 / Серии: 1-10 из 10 [2019 WEB-DL 1080p] bober100 Скачать
1 | 0
Наши сериалы [ 5.86 GB ] Форс-мажор / Старший по мафии / Сезон: 1 / Серии: 1-10 из 10 [2019 SATRip] bober100 Скачать
1 | 1

28-11-2019 20:33  

Отключить всю рекламу на сайте

    Дорогой пользователь! Огромная просьба, поблагодарите релизера, оцените раздачу и оставьте свои комментарий, если Вы скачали Форс-мажор через торрент бесплатно! Внесите свою лепту в развитие PiratBit!
    Комментировать посты могут только пользователи прошедшие не сложную регистрацию
    Показать сообщения:    

    Форс-мажор через торрент
    Скачать бесплатно Форс-мажор
    Форс-мажор скачать торрент
    Форс-мажор смотреть онлайн
    Cкачать фильм Форс-мажор бесплатно
    Форс-мажор скачать торрент в хорошем качестве
    Форс-мажор смотреть онлайн бесплатно в хорошем качестве


    Вы не можете начинать темы
    Вы не можете отвечать на сообщения
    Вы не можете редактировать свои сообщения
    Вы не можете удалять свои сообщения
    Вы не можете голосовать в опросах
    Вы не можете прикреплять файлы к сообщениям
    Вы можете скачивать файлы