Ссылка на приватное зеркало нашего сайта всего за 1$. Внимание количество ограничено!!!

2 сезон

iTunes

1 сезон

1

2 сезон

2 сезон

iTunes

1 сезон

RePack

30

Ultimate

ВАЖНО

ИГРА 18+

pack

RePack

MK11
pack

Забери бонус

RePack

jed

!!Акция!!

Alien_Rage

RePack

fifa19

RePack

Assassins Creed: Odyssey

RePack

NEED FOR SPEED™ PAYBACK

4 сезон

9 сезон

Бесстыжие 9 сезон

Все сериалы

все сериалы на PB.wtf

RePack

FAR CRY 5
  

Гость на свадьбе / The Wedding Guest (Майкл Уинтерботтом) [2018, Триллер, BD Remux 1080p] MVO [iTunes] pb.wtf

Гость на свадьбе через торрент pb.wtf

Размер: 18.6 GB | Добавлен: 1 год 1 мес. назад | Торрент скачан:9 раз
Скачать  

16-10-2019 01:17 Гость на свадьбе Скачать торрент  

Гость на свадьбе / The Wedding Guest
Год выпуска: 2018
Страна: Великобритания
Студия: India Take One Productions, Ingenious Media, Isobel Griffiths Limited, Lipsync Post, Revolution Films, Riverstone Pictures, Stage 6 Films
Жанр: Триллер
Продолжительность: 01:40:08
Перевод: Профессиональный многоголосый | iTunes
Субтитры: Русские (Full), украинские (Full), английские

Режиссер: Майкл Уинтерботтом

rating

В ролях: Дев Патель, Радхика Апте, Джим Сарбх, Ниш Натвани, Хэриш Ханна

Описание: Точно спланированная операция, призванная спасти девушку от нежелательной свадьбы, оборачивается гонкой на перегонки со временем, где каждый неверный шаг может стоит жизни...

Качество: BD Remux 1080p
Формат: MKV

Видео: MPEG-4 AVC, 1920x1080, 25.0 Mbit/s, 23.976 fps
Аудио#1: 48 kHz, AC3, 5.1, 384 Kbps | iTunes | RUS |
Аудио#2: 48 kHz, DTS-HD MA, 5.1, 2124 Kbps | Оригинал | ENG |
скриншот  скриншот  скриншот  скриншот  скриншот  

General
Unique ID : 198352551435361676721477845366347627581 (0x95394FD4737E668847023E3486DB7C3D)
Complete name : D:Video111The.Wedding.Guest.2018.BDREMUX.1080p.seleZen.mkv
Format : Matroska
Format version : Version 4
File size : 18.6 GiB
Duration : 1 h 40 min
Overall bit rate mode : Variable
Overall bit rate : 26.6 Mb/s
Encoded date : UTC 2019-10-15 22:34:05
Writing application : mkvmerge v22.0.0 ('At The End Of The World') 64-bit
Writing library : libebml v1.3.5 + libmatroska v1.4.8

Video
ID : 1
Format : AVC
Format/Info : Advanced Video Codec
Format profile : High@L4.1
Format settings : CABAC / 4 Ref Frames
Format settings, CABAC : Yes
Format settings, Reference : 4 frames
Codec ID : V_MPEG4/ISO/AVC
Duration : 1 h 36 min
Bit rate mode : Variable
Bit rate : 25.0 Mb/s
Maximum bit rate : 30.0 Mb/s
Width : 1 920 pixels
Height : 1 080 pixels
Display aspect ratio : 16:9
Frame rate mode : Constant
Frame rate : 23.976 (24000/1001) FPS
Color space : YUV
Chroma subsampling : 4:2:0
Bit depth : 8 bits
Scan type : Progressive
Bits/(Pixel*Frame) : 0.502
Stream size : 16.9 GiB (91%)
Language : English
Default : Yes
Forced : No
Color range : Limited
Color primaries : BT.709
Transfer characteristics : BT.709
Matrix coefficients : BT.709

Audio #1
ID : 2
Format : AC-3
Format/Info : Audio Coding 3
Commercial name : Dolby Digital
Codec ID : A_AC3
Duration : 1 h 36 min
Bit rate mode : Constant
Bit rate : 384 kb/s
Channel(s) : 6 channels
Channel layout : L R C LFE Ls Rs
Sampling rate : 48.0 kHz
Frame rate : 31.250 FPS (1536 SPF)
Bit depth : 16 bits
Compression mode : Lossy
Stream size : 265 MiB (1%)
Title : iTunes
Language : Russian
Service kind : Complete Main
Default : Yes
Forced : Yes

Audio #2
ID : 3
Format : DTS XLL
Format/Info : Digital Theater Systems
Commercial name : DTS-HD Master Audio
Codec ID : A_DTS
Duration : 1 h 40 min
Bit rate mode : Variable
Bit rate : 2 124 kb/s
Channel(s) : 6 channels
Channel layout : C L R Ls Rs LFE
Sampling rate : 48.0 kHz
Frame rate : 93.750 FPS (512 SPF)
Bit depth : 16 bits
Compression mode : Lossless
Stream size : 1.49 GiB (8%)
Title : Original
Language : English
Default : No
Forced : No

Text #1
ID : 4
Format : UTF-8
Codec ID : S_TEXT/UTF8
Codec ID/Info : UTF-8 Plain Text
Duration : 1 h 28 min
Bit rate : 48 b/s
Count of elements : 770
Stream size : 31.0 KiB (0%)
Title : Full
Language : Russian
Default : No
Forced : No

Text #2
ID : 5
Format : UTF-8
Codec ID : S_TEXT/UTF8
Codec ID/Info : UTF-8 Plain Text
Duration : 1 h 28 min
Bit rate : 48 b/s
Count of elements : 769
Stream size : 31.0 KiB (0%)
Title : Full
Language : Ukrainian
Default : No
Forced : No

Text #3
ID : 6
Format : UTF-8
Codec ID : S_TEXT/UTF8
Codec ID/Info : UTF-8 Plain Text
Duration : 1 h 32 min
Bit rate : 35 b/s
Count of elements : 956
Stream size : 24.0 KiB (0%)
Title : SDH
Language : English
Default : No
Forced : No

Menu
00:00:00.000 : en:00:00:00.000
00:07:13.475 : en:00:07:13.475
00:15:32.056 : en:00:15:32.056
00:24:01.190 : en:00:24:01.190
00:33:15.285 : en:00:33:15.285
00:39:54.767 : en:00:39:54.767
00:47:04.530 : en:00:47:04.530
00:55:17.231 : en:00:55:17.231
01:05:21.167 : en:01:05:21.167
01:13:59.352 : en:01:13:59.352
01:19:52.913 : en:01:19:52.913
01:31:10.674 : en:01:31:10.674

pb.wtf



Скачать Гость на свадьбе через торрент https://a.radikal.ru/a26/1910/27/b0e535bcca52.jpg Скачать фильм Гость на свадьбе через торрент бесплантно в хорошем качестве Описание: Точно спланированная операция, призванная спасти девушку от нежелательной свадьбы, оборачивается гонкой на перегонки со временем, ... 10 10 3
Торрент: Зарегистрирован [2019-10-16 01:17] · скачан: 9 раз
Статус: √ проверено
Размер: 18.6 GB
Как cкачать? Как скачать Гость на свадьбе через торрент | qTorrent

% Раздел Тема Автор DL S | L
Фильмы [HD 720p, 1080p] (Хороший звук DUB, MVO) [ 7.01 GB ] Гость на свадьбе / The Wedding Guest [2018 BDRip 1080p] MVO bober100 Скачать
1 | 0
Фильмы 2018 [DVDrip, WEB-DLRip, HDrip] (DUB, MVO) [ 2.12 GB ] Гость на свадьбе / The Wedding Guest [2018 BDRip-AVC] MVO - ExKinoRay Enigma2010 Скачать
2 | 0
Фильмы (WEB-DL 720p, 1080p) [ 6.36 GB ] Гость на свадьбе / The Wedding Guest [2018 WEB-DL 1080p] MVO bober100 Скачать
1 | 0
Фильмы 2018 [DVDrip, WEB-DLRip, HDrip] (DUB, MVO) [ 1.46 GB ] Гость на свадьбе / The Wedding Guest [2018 WEB-DLRip] MVO bober100 Скачать
1 | 0

28-11-2019 20:33  

Отключить всю рекламу на сайте

    Дорогой пользователь! Огромная просьба, поблагодарите релизера, оцените раздачу и оставьте свои комментарий, если Вы скачали Гость на свадьбе через торрент бесплатно! Внесите свою лепту в развитие PiratBit!
    Комментировать посты могут только пользователи прошедшие не сложную регистрацию
    Показать сообщения:    

    Гость на свадьбе через торрент
    Скачать бесплатно Гость на свадьбе
    Гость на свадьбе скачать торрент
    Гость на свадьбе смотреть онлайн
    Cкачать фильм Гость на свадьбе бесплатно
    Гость на свадьбе скачать торрент в хорошем качестве
    Гость на свадьбе смотреть онлайн бесплатно в хорошем качестве


    Вы не можете начинать темы
    Вы не можете отвечать на сообщения
    Вы не можете редактировать свои сообщения
    Вы не можете удалять свои сообщения
    Вы не можете голосовать в опросах
    Вы не можете прикреплять файлы к сообщениям
    Вы можете скачивать файлы