Ссылка на приватное зеркало нашего сайта всего за 1$. Внимание количество ограничено!!!

2 сезон

iTunes

1 сезон

1

2 сезон

2 сезон

iTunes

1 сезон

RePack

30

Новинка

ВАЖНО

ИГРА 18+

pack

RePack

MK11
pack

Забери бонус

RePack

jed

!!Акция!!

Alien_Rage

RePack

fifa19

RePack

Assassins Creed: Odyssey

RePack

NEED FOR SPEED™ PAYBACK

4 сезон

9 сезон

Бесстыжие 9 сезон

Все сериалы

все сериалы на PB.wtf

RePack

FAR CRY 5
  

Перелом / Fractured (Брэд Андерсон / Brad Anderson) [2019, триллер, WEB-DL 1080p] [DVO] (LakeFilms) pb.wtf

Перелом через торрент pb.wtf

Раздают: 5 [ 0 KB/s ]
Размер: 2.38 GB | Добавлен: 1 год 1 мес. назад | Торрент скачан:1033 раза
Скачать  

16-10-2019 08:04 Перелом Скачать торрент  

Перелом / Fractured

Страна: США
Жанр: Триллер
Год выпуска: 2019
Продолжительность: 01:40:04

Перевод:Любительский (двухголосый закадровый) LakeFilms
Субтитры: Русские, английские, испанские, французские, немецкие и др.

Режиссер: Брэд Андерсон / Brad Anderson

В ролях: Сэм Уортингтон, Лили Рэйб, Стивен Тоболовски, Люси капри, Аджоа Андох, Стефани Сай, Лорен Кокрейн, Натали Бэйли, Эрик Атхавале, Дэннис Скаллард

Описание: Рэй едет на машине через всю страну с женой и дочерью. На очередной стоянке дочка ломает руку. Рэй в спешке везет ее в больницу и, поскандалив с медсестрой в регистратуре, все-таки добивается срочного осмотра врача. Девочку отправляют на МРТ, а герой, основательно вымотавшись, засыпает в кресле в фойе. Проснувшись через какое-то время, Рэй обнаруживает, что его жена и дочь бесследно исчезли — вместе с записью в журнале посещений в регистратуре.



Тип релиза: WEB-DL 1080p
Контейнер: MKV

Видео: MPEG-4 AVC, 1080p, 1920:1080 (16:9), 2260 kbps, 24.000 fps
Аудио 1: AC3, 2 ch, 48 kHz, 384 kbps Русский DVO LakeFilms
Аудио 2: E-AC3+Atmos, 6 ch, 48 kHz, 768 kbps Английский
Формат субтитров: SRT
General
Unique ID : 232668830700472729624539832885550455238 (0xAF0A6306730DB9404E209C43E6AF19C6)
Complete name : G:\Fractured.2019.NF.WEB-DL.1080p.mkv
Format : Matroska
Format version : Version 4 / Version 2
File size : 2.38 GiB
Duration : 1 h 40 min
Overall bit rate mode : Variable
Overall bit rate : 3 404 kb/s
Encoded date : UTC 2019-10-16 06:45:44
Writing application : mkvmerge v20.0.0 ('I Am The Sun') 64-bit
Writing library : libebml v1.3.5 + libmatroska v1.4.8

Video
ID : 1
Format : AVC
Format/Info : Advanced Video Codec
Format profile : Main@L4
Format settings : CABAC / 3 Ref Frames
Format settings, CABAC : Yes
Format settings, RefFrames : 3 frames
Codec ID : V_MPEG4/ISO/AVC
Duration : 1 h 40 min
Bit rate mode : Variable
Bit rate : 2 260 kb/s
Maximum bit rate : 3 390 kb/s
Width : 1 920 pixels
Height : 1 080 pixels
Display aspect ratio : 16:9
Frame rate mode : Constant
Frame rate : 24.000 FPS
Color space : YUV
Chroma subsampling : 4:2:0
Bit depth : 8 bits
Scan type : Progressive
Bits/(Pixel*Frame) : 0.045
Stream size : 1.57 GiB (66%)
Writing library : x264 core 148 r2715 7e75228
Encoding settings : cabac=1 / ref=3 / deblock=1:0:0 / analyse=0x1:0x111 / me=umh / subme=10 / psy=1 / psy_rd=1.00:0.00 / mixed_ref=1 / me_range=24 / chroma_me=1 / trellis=2 / 8x8dct=0 / cqm=0 / deadzone=21,11 / fast_pskip=1 / chroma_qp_offset=-2 / threads=8 / lookahead_threads=1 / sliced_threads=0 / nr=0 / decimate=1 / interlaced=0 / bluray_compat=0 / stitchable=1 / constrained_intra=0 / bframes=2 / b_pyramid=0 / b_adapt=2 / b_bias=0 / direct=3 / weightb=1 / open_gop=0 / weightp=2 / keyint=250 / keyint_min=24 / scenecut=0 / intra_refresh=0 / rc_lookahead=48 / rc=2pass / mbtree=1 / bitrate=2260 / ratetol=1.0 / qcomp=0.50 / qpmin=6 / qpmax=51 / qpstep=4 / cplxblur=20.0 / qblur=0.5 / vbv_maxrate=3390 / vbv_bufsize=4520 / nal_hrd=vbr / filler=0 / ip_ratio=1.40 / aq=1:1.00
Language : English
Default : Yes
Forced : No

Audio #1
ID : 2
Format : AC-3
Format/Info : Audio Coding 3
Codec ID : A_AC3
Duration : 1 h 40 min
Bit rate mode : Constant
Bit rate : 384 kb/s
Channel(s) : 2 channels
Channel positions : Front: L R
Sampling rate : 48.0 kHz
Frame rate : 31.250 FPS (1536 SPF)
Bit depth : 16 bits
Compression mode : Lossy
Stream size : 275 MiB (11%)
Title : DVO LakeFilms
Language : Russian
Service kind : Complete Main
Default : Yes
Forced : No

Audio #2
ID : 3
Format : E-AC-3
Format/Info : Enhanced Audio Coding 3
Format profile : E-AC-3+Atmos / E-AC-3
Codec ID : A_EAC3
Duration : 1 h 40 min
Bit rate mode : Constant
Bit rate : 768 kb/s
Channel(s) : 15 objects / 6 channels
Channel positions : 15 objects / Front: L C R, Side: L R, LFE
Sampling rate : 48.0 kHz
Frame rate : 187.500 FPS (256 SPF)
Compression mode : Lossy
Stream size : 550 MiB (23%)
Title : English
Language : English
Service kind : Complete Main
Default : No
Forced : No

Text #1
ID : 4
Format : UTF-8
Codec ID : S_TEXT/UTF8
Codec ID/Info : UTF-8 Plain Text
Duration : 1 h 37 min
Bit rate : 84 b/s
Count of elements : 1329
Stream size : 59.9 KiB (0%)
Title : Russian
Language : Russian
Default : No
Forced : No

Text #2
ID : 5
Format : UTF-8
Codec ID : S_TEXT/UTF8
Codec ID/Info : UTF-8 Plain Text
Duration : 1 h 31 min
Bit rate : 65 b/s
Count of elements : 1406
Stream size : 43.9 KiB (0%)
Title : English
Language : English
Default : No
Forced : No

Text #3
ID : 6
Format : UTF-8
Codec ID : S_TEXT/UTF8
Codec ID/Info : UTF-8 Plain Text
Duration : 1 h 38 min
Bit rate : 73 b/s
Count of elements : 1632
Stream size : 53.0 KiB (0%)
Title : English [SDH]
Language : English
Default : No
Forced : No

Text #4
ID : 7
Format : UTF-8
Codec ID : S_TEXT/UTF8
Codec ID/Info : UTF-8 Plain Text
Duration : 1 h 37 min
Bit rate : 58 b/s
Count of elements : 1379
Stream size : 41.9 KiB (0%)
Title : French
Language : French
Default : No
Forced : No

Text #5
ID : 8
Format : UTF-8
Codec ID : S_TEXT/UTF8
Codec ID/Info : UTF-8 Plain Text
Duration : 1 h 38 min
Bit rate : 51 b/s
Count of elements : 1309
Stream size : 36.9 KiB (0%)
Title : German
Language : German
Default : No
Forced : No

Text #6
ID : 9
Format : UTF-8
Codec ID : S_TEXT/UTF8
Codec ID/Info : UTF-8 Plain Text
Duration : 1 h 37 min
Bit rate : 48 b/s
Count of elements : 1352
Stream size : 34.7 KiB (0%)
Title : Castilian
Language : Spanish
Default : No
Forced : No

Text #7
ID : 10
Format : UTF-8
Codec ID : S_TEXT/UTF8
Codec ID/Info : UTF-8 Plain Text
Duration : 1 h 38 min
Bit rate : 48 b/s
Count of elements : 1367
Stream size : 35.4 KiB (0%)
Title : Spanish
Language : Spanish
Default : No
Forced : No

Text #8
ID : 11
Format : UTF-8
Codec ID : S_TEXT/UTF8
Codec ID/Info : UTF-8 Plain Text
Duration : 1 h 37 min
Bit rate : 47 b/s
Count of elements : 1343
Stream size : 34.1 KiB (0%)
Title : Italian
Language : Italian
Default : No
Forced : No

Text #9
ID : 12
Format : UTF-8
Codec ID : S_TEXT/UTF8
Codec ID/Info : UTF-8 Plain Text
Duration : 1 h 38 min
Bit rate : 54 b/s
Count of elements : 1405
Stream size : 39.1 KiB (0%)
Title : Portuguese
Language : Portuguese
Default : No
Forced : No

Text #10
ID : 13
Format : UTF-8
Codec ID : S_TEXT/UTF8
Codec ID/Info : UTF-8 Plain Text
Duration : 1 h 37 min
Bit rate : 55 b/s
Count of elements : 1410
Stream size : 39.6 KiB (0%)
Title : Brazilian Portuguese
Language : Portuguese
Default : No
Forced : No

Text #11
ID : 14
Format : UTF-8
Codec ID : S_TEXT/UTF8
Codec ID/Info : UTF-8 Plain Text
Duration : 1 h 38 min
Bit rate : 45 b/s
Count of elements : 1368
Stream size : 32.6 KiB (0%)
Title : Polish
Language : Polish
Default : No
Forced : No

Text #12
ID : 15
Format : UTF-8
Codec ID : S_TEXT/UTF8
Codec ID/Info : UTF-8 Plain Text
Duration : 1 h 37 min
Bit rate : 49 b/s
Count of elements : 1298
Stream size : 35.4 KiB (0%)
Title : Turkish
Language : Turkish
Default : No
Forced : No

Text #13
ID : 16
Format : UTF-8
Codec ID : S_TEXT/UTF8
Codec ID/Info : UTF-8 Plain Text
Duration : 1 h 37 min
Bit rate : 50 b/s
Count of elements : 1232
Stream size : 35.8 KiB (0%)
Title : Swedish
Language : Swedish
Default : No
Forced : No

Text #14
ID : 17
Format : UTF-8
Codec ID : S_TEXT/UTF8
Codec ID/Info : UTF-8 Plain Text
Duration : 1 h 37 min
Bit rate : 46 b/s
Count of elements : 1140
Stream size : 33.4 KiB (0%)
Title : Danish
Language : Danish
Default : No
Forced : No

Text #15
ID : 18
Format : UTF-8
Codec ID : S_TEXT/UTF8
Codec ID/Info : UTF-8 Plain Text
Duration : 1 h 37 min
Bit rate : 48 b/s
Count of elements : 1036
Stream size : 34.7 KiB (0%)
Title : Finnish
Language : Finnish
Default : No
Forced : No

Text #16
ID : 19
Format : UTF-8
Codec ID : S_TEXT/UTF8
Codec ID/Info : UTF-8 Plain Text
Duration : 1 h 37 min
Bit rate : 47 b/s
Count of elements : 1088
Stream size : 33.9 KiB (0%)
Title : Dutch
Language : Dutch
Default : No
Forced : No

Text #17
ID : 20
Format : UTF-8
Codec ID : S_TEXT/UTF8
Codec ID/Info : UTF-8 Plain Text
Duration : 1 h 37 min
Bit rate : 45 b/s
Count of elements : 1357
Stream size : 32.4 KiB (0%)
Title : Norwegian
Language : Norwegian
Default : No
Forced : No

Text #18
ID : 21
Format : UTF-8
Codec ID : S_TEXT/UTF8
Codec ID/Info : UTF-8 Plain Text
Duration : 1 h 37 min
Bit rate : 48 b/s
Count of elements : 1418
Stream size : 34.6 KiB (0%)
Title : Hungarian
Language : Hungarian
Default : No
Forced : No

Text #19
ID : 22
Format : UTF-8
Codec ID : S_TEXT/UTF8
Codec ID/Info : UTF-8 Plain Text
Duration : 1 h 38 min
Bit rate : 80 b/s
Count of elements : 1388
Stream size : 57.9 KiB (0%)
Title : Greek
Language : Greek
Default : No
Forced : No

Text #20
ID : 23
Format : UTF-8
Codec ID : S_TEXT/UTF8
Codec ID/Info : UTF-8 Plain Text
Duration : 1 h 31 min
Bit rate : 86 b/s
Count of elements : 1461
Stream size : 58.4 KiB (0%)
Title : Hebrew
Language : Hebrew
Default : No
Forced : No

Text #21
ID : 24
Format : UTF-8
Codec ID : S_TEXT/UTF8
Codec ID/Info : UTF-8 Plain Text
Duration : 1 h 31 min
Bit rate : 104 b/s
Count of elements : 1409
Stream size : 69.7 KiB (0%)
Title : Arabic
Language : Arabic
Default : No
Forced : No

Text #22
ID : 25
Format : UTF-8
Codec ID : S_TEXT/UTF8
Codec ID/Info : UTF-8 Plain Text
Duration : 1 h 31 min
Bit rate : 62 b/s
Count of elements : 1409
Stream size : 41.9 KiB (0%)
Title : Romanian
Language : Romanian
Default : No
Forced : No

Text #23
ID : 26
Format : UTF-8
Codec ID : S_TEXT/UTF8
Codec ID/Info : UTF-8 Plain Text
Duration : 1 h 37 min
Bit rate : 51 b/s
Count of elements : 1381
Stream size : 36.4 KiB (0%)
Title : Czech
Language : Czech
Default : No
Forced : No

Text #24
ID : 27
Format : UTF-8
Codec ID : S_TEXT/UTF8
Codec ID/Info : UTF-8 Plain Text
Duration : 1 h 32 min
Bit rate : 159 b/s
Count of elements : 1418
Stream size : 109 KiB (0%)
Title : Hindi
Language : Hindi
Default : No
Forced : No

Text #25
ID : 28
Format : UTF-8
Codec ID : S_TEXT/UTF8
Codec ID/Info : UTF-8 Plain Text
Duration : 1 h 37 min
Bit rate : 45 b/s
Count of elements : 1346
Stream size : 32.1 KiB (0%)
Title : Indonesian
Language : Indonesian
Default : No
Forced : No

Text #26
ID : 29
Format : UTF-8
Codec ID : S_TEXT/UTF8
Codec ID/Info : UTF-8 Plain Text
Duration : 1 h 31 min
Bit rate : 84 b/s
Count of elements : 1416
Stream size : 56.3 KiB (0%)
Title : Vietnamese
Language : Vietnamese
Default : No
Forced : No

Text #27
ID : 30
Format : UTF-8
Codec ID : S_TEXT/UTF8
Codec ID/Info : UTF-8 Plain Text
Duration : 1 h 31 min
Bit rate : 165 b/s
Count of elements : 1420
Stream size : 111 KiB (0%)
Title : Thai
Language : Thai
Default : No
Forced : No

Text #28
ID : 31
Format : UTF-8
Codec ID : S_TEXT/UTF8
Codec ID/Info : UTF-8 Plain Text
Duration : 1 h 31 min
Bit rate : 69 b/s
Count of elements : 1405
Stream size : 46.5 KiB (0%)
Title : Korean
Language : Korean
Default : No
Forced : No

Text #29
ID : 32
Format : UTF-8
Codec ID : S_TEXT/UTF8
Codec ID/Info : UTF-8 Plain Text
Duration : 1 h 37 min
Bit rate : 58 b/s
Count of elements : 1555
Stream size : 41.7 KiB (0%)
Title : Chinese (Simplified)
Language : Chinese
Default : No
Forced : No

Text #30
ID : 33
Format : UTF-8
Codec ID : S_TEXT/UTF8
Codec ID/Info : UTF-8 Plain Text
Duration : 1 h 31 min
Bit rate : 59 b/s
Count of elements : 1467
Stream size : 39.7 KiB (0%)
Title : Chinese (Traditional)
Language : Chinese
Default : No
Forced : No

Text #31
ID : 34
Format : UTF-8
Codec ID : S_TEXT/UTF8
Codec ID/Info : UTF-8 Plain Text
Duration : 1 h 32 min
Bit rate : 53 b/s
Count of elements : 1359
Stream size : 36.2 KiB (0%)
Title : Japanese
Language : Japanese
Default : No
Forced : No
скриншот  скриншот  скриншот  
pb.wtf



Скачать Перелом через торрент http://i89.fastpic.ru/big/2019/1011/95/21444abf4dba01ff1d31411e96ccdd95.jpg Скачать фильм Перелом через торрент бесплантно в хорошем качестве Описание: Рэй едет на машине через всю страну с женой и дочерью. На очередной стоянке дочка ломает руку. Рэй в спешке везет ее в больницу ... 9.9 10 12
Торрент: Зарегистрирован [2019-10-16 08:04] · скачан: 1 033 раз
Статус: T временная
Размер: 2.38 GB
Как cкачать? Как скачать Перелом через торрент | qTorrent

% Раздел Тема Автор DL S | L
Фильмы [HD 720p, 1080p] (Хороший звук DUB, MVO) [ 7.94 GB ] Перелом / Fracture [2007 BDRip 1080p] DUB MVO AVO msltel Скачать
1 | 0
Фильмы [HD 720p, 1080p] (Хороший звук DUB, MVO) [ 4.45 GB ] Перелом / Fracture [2007 BDRip 720p] DUB MVO AVO msltel Скачать
2 | 0
Фильмы 2006-2008 [ 2.18 GB ] Перелом / Fracture [2007 BDRip] DUB + original chack Скачать
2 | 0
T Фильмы 2013 (Звук TS, Cam, VO, DVO) [ 2.17 GB ] Открытый перелом / Compound Fracture [2013 WEB-DLRip Любительский двухголосый] coc900 Скачать
1 | 0
T Фильмы (WEB-DL 720p, 1080p) [ 2.71 GB ] Открытый перелом / Compound Fracture [ 2013 WEB-DL720p ] DVO [DeadSno & den904] GEKADOL Скачать
1 | 0
Фильмы [HD 720p, 1080p] (Хороший звук DUB, MVO) [ 14 GB ] Перелом / Fracture [2007 BDRip 1080p] Flint3 Скачать
1 | 0
Фильмы 2006-2008 [ 750 MB ] Перелом / Fracture [2007 HDRip] art1san Скачать
1 | 0

28-11-2019 20:33  

Отключить всю рекламу на сайте

16-10-2019 09:09 Перелом Скачать торрент  

Почему этого мутного актеришку выделили большим шрифтом? А вам аватар понравился, точно...ну, а остальные его роли муть и печаль на лице)pb.wtf



16-10-2019 13:02 Перелом Скачать торрент  

почему год выпуска то 2007 то 2019 ,чёта мутятpb.wtf



16-10-2019 14:57 Перелом Скачать торрент  

мутно чота, точна pb.wtf



16-10-2019 17:25 Перелом Скачать торрент  

крутой фильм, рекомендуюpb.wtf



16-10-2019 18:53 Перелом Скачать торрент  

Класс!!pb.wtf



17-10-2019 21:40 Перелом Скачать торрент  

фильм классный.посмотрел с другого источника запись на 4 гига.этот местный вариант для старого самсунга не поканал.в напряжении держит целый час с начала интриги и до финала.pb.wtf



22-10-2019 09:49 Перелом Скачать торрент  

Отличный фильм! Спасибо за раздачу!pb.wtf



23-10-2019 07:05 Перелом Скачать торрент  

Артём554984 писал(а):

Почему этого мутного актеришку выделили большим шрифтом? А вам аватар понравился, точно...ну, а остальные его роли муть и печаль на лице)

а чего добился ты? или чужие лавры покоя не дают? pb.wtf



    Дорогой пользователь! Огромная просьба, поблагодарите релизера, оцените раздачу и оставьте свои комментарий, если Вы скачали Перелом через торрент бесплатно! Внесите свою лепту в развитие PiratBit!
    Комментировать посты могут только пользователи прошедшие не сложную регистрацию
    Показать сообщения:    

    Перелом через торрент
    Скачать бесплатно Перелом
    Перелом скачать торрент
    Перелом смотреть онлайн
    Cкачать фильм Перелом бесплатно
    Перелом скачать торрент в хорошем качестве
    Перелом смотреть онлайн бесплатно в хорошем качестве


    Вы не можете начинать темы
    Вы не можете отвечать на сообщения
    Вы не можете редактировать свои сообщения
    Вы не можете удалять свои сообщения
    Вы не можете голосовать в опросах
    Вы не можете прикреплять файлы к сообщениям
    Вы можете скачивать файлы