новый адрес
Ссылка на приватное зеркало всего за 1$. Внимание количество ограничено!!!

iTunes

1+1

iTunes

мы

WEB-DL

1

iTunes

Чернобыль

iTunes

Ральф против интернета

Лицензия

ПШазам

Лицензия

Оно 2

Лицензия

30
pack

Вам бонус

ВАЖНО

!!Акция!!

Alien_RageХит недели

RePack

Resident Evil 21

ИГРА 18+

pack

RePack

jed

!!Акция!!

Alien_Rage

RePack

fifa19

RePack

Assassins Creed: Odyssey

RePack

NEED FOR SPEED™ PAYBACK

3 сезон

9 сезон

Бесстыжие 9 сезон

Все сериалы

все сериалы на PB.wtf

RePack

FAR CRY 5
Ребята, катастрофически не хватает 1900р. для оплаты серверов за Октябрь (всвязи с блокировками трафик упал в 3 раза), 1-2р., выручайте.
  

Симпсоны / The Simpsons / Сезон: 31 / Серии: 1-9 из 23 (Микель Б. Андерсон, Марк Керклэнд, Стивен Дин Мур) [2019, Мультфильм, комедия, WEB-DL 720p] MVO [TVShows] pb.wtf

Симпсоны через торрент pb.wtf

Качают: 1 [ 0 KB/s ]
Размер: 3.5 GB | Добавлен: 4 д. назад | Торрент скачан:1 раз
Скачать  

16-10-2019 08:21 Симпсоны Скачать торрент  

Симпсоны / The Simpsons

Страна: США
Жанр: Мультфильм, комедия
Продолжительность серии: ~00:22:00
Год выпуска: 2019
Перевод: Профессиональный (многоголосый закадровый) | TVShows
Субтитры: Английские

Режиссёр: Микель Б. Андерсон, Марк Керклэнд, Стивен Дин Мур

Роли озвучивали: Тресс МакНилл, Хэнк Азария, Мэгги Росвэлл, Карл Видерготт, Памела Хейден, Ярдли Смит, Джули Кавнер, Гарри Ширер, Нэнси Картрайт, Дэн Кастелланета

Описание: Мультфильм — пародия на американский уклад жизни. Семейство Симпсонов состоит из пяти членов: папаша Гомер, мать семейства Мардж, их дочери, Лиза и Мэгги, и несносный подросток Барт.

rating

Качество: WEB-DL 720p
Формат: MKV

Видео: MPEG-4 AVC, 1280x720, 16:9, 23.976 fps, ~1530 kbps
Аудио 1: Русский, AC3, 48 kHz, 6 ch, 384 kbps
Аудио 2: Английский, E-AC3, 48 kHz, 6 ch, 256 kbps


Реклама: Отсутствует
Общее
Уникальный идентификатор : 274117765995985824024016849979898386000 (0xCE39295055030DE1F7430D715FB0D650)
Полное имя : C:\The.Simpsons.S31.720p.TVShows\The.Simpsons.S31E01.720p.TVShows.mkv
Формат : Matroska
Версия формата : Version 4
Размер файла : 336 Мбайт
Продолжительность : 21 м. 38 с.
Общий поток : 2172 Кбит/сек
Дата кодирования : UTC 2019-10-09 07:39:51
Программа кодирования : mkvmerge v33.1.0 ('Primrose') 64-bit
Библиотека кодирования : libebml v1.3.7 + libmatroska v1.5.0

Видео
Идентификатор : 1
Формат : AVC
Формат/Информация : Advanced Video Codec
Профиль формата : High@L3.1
Настройки формата : CABAC / 5 Ref Frames
Параметр CABAC формата : Да
Параметр RefFrames формата : 5 кадров
Идентификатор кодека : V_MPEG4/ISO/AVC
Продолжительность : 21 м. 38 с.
Битрейт : 1530 Кбит/сек
Ширина : 1280 пикселей
Высота : 720 пикселей
Соотношение сторон : 16:9
Режим частоты кадров : Постоянный
Частота кадров : 23,976 (24000/1001) кадра/сек
Цветовое пространство : YUV
Субдискретизация насыщенности : 4:2:0
Битовая глубина : 8 бит
Тип развёртки : Прогрессивная
Бит/(Пиксели*Кадры) : 0.069
Размер потока : 237 Мбайт (70%)
Default : Да
Forced : Нет

Аудио #1
Идентификатор : 2
Формат : AC-3
Формат/Информация : Audio Coding 3
Коммерческое название : Dolby Digital
Идентификатор кодека : A_AC3
Продолжительность : 21 м. 38 с.
Вид битрейта : Постоянный
Битрейт : 384 Кбит/сек
Каналы : 6 каналов
ChannelLayout : L R C LFE Ls Rs
Частота : 48,0 КГц
Частота кадров : 31,250 кадров/сек (1536 SPF)
Битовая глубина : 16 бит
Метод сжатия : С потерями
Размер потока : 59,4 Мбайт (18%)
Заголовок : TVShows
Язык : Russian
ServiceKind/String : Complete Main
Default : Да
Forced : Да

Аудио #2
Идентификатор : 3
Формат : E-AC-3
Формат/Информация : Enhanced AC-3
Коммерческое название : Dolby Digital Plus
Идентификатор кодека : A_EAC3
Продолжительность : 21 м. 38 с.
Вид битрейта : Постоянный
Битрейт : 256 Кбит/сек
Каналы : 6 каналов
ChannelLayout : L R C LFE Ls Rs
Частота : 48,0 КГц
Частота кадров : 31,250 кадров/сек (1536 SPF)
Метод сжатия : С потерями
Размер потока : 39,6 Мбайт (12%)
Заголовок : Original
Язык : English
ServiceKind/String : Complete Main
Default : Нет
Forced : Нет

Текст
Идентификатор : 4
Формат : UTF-8
Идентификатор кодека : S_TEXT/UTF8
Идентификатор кодека/Информация : UTF-8 Plain Text
Продолжительность : 21 м. 24 с.
Битрейт : 99 бит/сек
ElementCount : 538
Размер потока : 15,6 Кбайт (0%)
Заголовок : English
Язык : English
Default : Нет
Forced : Нет
скриншот  скриншот  скриншот  

скриншот  скриншот  скриншот  
При каждом добавлении создаётся новый торрент. Чтобы начать докачку новой серии, пользователям необходимо сделать следующее:

остановить скачивание,
удалить старый торрент у себя из клиента (старые серии удалять не надо),
скачать новый торрент и запустить его у себя в клиенте вместо старого, при этом указать клиенту путь в старую папку куда и должно происходить скачивание новых серий.

Ваш клиент при этом должен произвести хеширование (проверку) старой папки (если не производит сам - помогите ему сделать это), и будет докачивать только те серии которых у вас ещё нет. Старые серии при этом не удаляются, а продолжают раздаваться!
Eсли вы уже удалили старые серии, то предотвратить повторную закачку старых серий можно, отжав галочку в соответствующих местах при запуске нового торрента. По возможности, желательно не удалять старые серии как можно дольше чтобы релизёр не столько продолжал раздавать старые серии, а смог сконцентрироваться на новых.
pb.wtf



Скачать Симпсоны через торрент https://i89.fastpic.ru/big/2019/1012/4c/3779d261a5d36abb10a8dadcec06fd4c.jpg Скачать фильм Симпсоны через торрент бесплантно в хорошем качестве Описание: Мультфильм — пародия на американский уклад жизни. Семейство Симпсонов состоит из пяти членов: папаша Гомер, мать семейства Мардж, ... 10 10 3
Торрент: Зарегистрирован [2019-12-04 19:21] · скачан: 1 раз
Статус: √ проверено
Размер: 3.5 GB
Как cкачать? Как скачать Симпсоны через торрент | qTorrent

% Раздел Тема Автор DL S | L
Мультсериалы [ 5.45 GB ] Симпсоны / The Simpsons / Сезон: 31 / Серии: 1-9 из 23 [2019 Мультфильм WEB-DL 1080p] MVO [TVShows] bober100 Скачать
2 | 0

28-11-2019 20:33  

Отключить всю рекламу на сайте

    Дорогой пользователь! Огромная просьба, поблагодарите релизера, оцените раздачу и оставьте свои комментарий, если Вы скачали Симпсоны через торрент бесплатно! Внесите свою лепту в развитие PiratBit!
    Комментировать посты могут только пользователи прошедшие не сложную регистрацию
    Показать сообщения:    

    Симпсоны через торрент
    Скачать бесплатно Симпсоны
    Симпсоны скачать торрент
    Симпсоны смотреть онлайн
    Cкачать фильм Симпсоны бесплатно
    Симпсоны скачать торрент в хорошем качестве
    Симпсоны смотреть онлайн бесплатно в хорошем качестве


    Вы не можете начинать темы
    Вы не можете отвечать на сообщения
    Вы не можете редактировать свои сообщения
    Вы не можете удалять свои сообщения
    Вы не можете голосовать в опросах
    Вы не можете прикреплять файлы к сообщениям
    Вы можете скачивать файлы