новый адрес
Ссылка на приватное зеркало всего за 1$. Внимание количество ограничено!!!

iTunes

1+1

iTunes

мы

WEB-DL

1

iTunes

Чернобыль

iTunes

Ральф против интернета

Лицензия

ПШазам

Лицензия

Оно 2

Лицензия

30
pack

Вам бонус

ВАЖНО

!!Акция!!

Alien_RageХит недели

RePack

Resident Evil 21

ИГРА 18+

pack

RePack

jed

!!Акция!!

Alien_Rage

RePack

fifa19

RePack

Assassins Creed: Odyssey

RePack

NEED FOR SPEED™ PAYBACK

3 сезон

9 сезон

Бесстыжие 9 сезон

Все сериалы

все сериалы на PB.wtf

RePack

FAR CRY 5
Ребята, катастрофически не хватает 1900р. для оплаты серверов за Октябрь (всвязи с блокировками трафик упал в 3 раза), 1-2р., выручайте.
  

Путь: Во все тяжкие / El Camino: A Breaking Bad Movie (Винс Гиллиган / Vince Gilligan) [2019, драма, криминал, WEB-DLRip-AVC] MVO (IdeaFilm) + DVO (Кубик в Кубе) pb.wtf

Путь: Во все тяжкие через торрент pb.wtf

Размер: 2.57 GB | Добавлен: 1 мес. 22 д. назад | Торрент скачан:62 раза
Скачать  

16-10-2019 18:18 Путь: Во все тяжкие Скачать торрент  


Путь: Во все тяжкие / El Camino: A Breaking Bad Movie



Страна: США
Жанр: драма, криминал
Год выпуска: 2019
Продолжительность: 02:02:42
Перевод 1: Любительский (многоголосый закадровый) IdeaFilm
Перевод 2: Профессиональный (двухголосый закадровый) Кубик в Кубе
Субтитры: русские, английские
Режиссер: Винс Гиллиган / Vince Gilligan
В ролях: Аарон Пол, Брайан Крэнстон, Джесси Племонс, Мэтт Джонс, Джонатан Бэнкс, Чарльз Бэйкер, Ларри Хэнкин, Кевин О. Ранкин, Тесс Харпер, Марла Гиббс
Описание: Джесси Пинкман сбежал от неонацистов. Не зная, куда ему податься, он скрывается от полиции, похитителей и прошлого. Теперь он должен понять, как ему жить дальше.


Качество видео: WEB-DLRip-AVC / WEB-DL 1080p
Формат видео: MKV
Видео: MPEG-4 AVC, 904x376 (2.40:1), 24.000 fps, ~1851 kbps avg, 0.227 bit/pixel
Аудио 1: 48 kHz, AC3 Dolby Digital, 2/0 (L,R) ch, ~192 kbps avg IdeaFilm
Аудио 2: 48 kHz, AC3 Dolby Digital, 3/2 (L,C,R,l,r) + LFE ch, ~448 kbps avg Кубик в Кубе
Аудио 3: 48 kHz, AC3 Dolby Digital, 3/2 (L,C,R,l,r) + LFE ch, ~448 kbps avg Original

Код:

Complete name               : D:\Раздача\Путь - Во все тяжкие (2019) WEB-DLRip-AVC__ivanes.mkv
Format                      : Matroska
Format version              : Version 2
File size                   : 2.57 GiB
Duration                    : 2 h 2 min
Overall bit rate            : 2 999 kb/s
Movie name                  : Путь - Во все тяжкие (2019) WEB-DLRip-AVC_ivanes
Encoded date                : UTC 2019-10-16 18:02:03
Writing application         : mkvmerge v4.4.0 ('Die Wiederkehr') сборка от Jan  3 2011 21:40:45
Writing library             : libebml v1.0.0 + libmatroska v1.0.0
Cover                       : Yes
Attachments                 : cover.jpg

Video
ID                          : 1
Format                      : AVC
Format/Info                 : Advanced Video Codec
Format profile              : High@L4.1
Format settings             : CABAC / 11 Ref Frames
Format settings, CABAC      : Yes
Format settings, Reference  : 11 frames
Codec ID                    : V_MPEG4/ISO/AVC
Duration                    : 2 h 2 min
Bit rate                    : 1 851 kb/s
Width                       : 904 pixels
Height                      : 376 pixels
Display aspect ratio        : 2.40:1
Frame rate mode             : Constant
Frame rate                  : 24.000 FPS
Color space                 : YUV
Chroma subsampling          : 4:2:0
Bit depth                   : 8 bits
Scan type                   : Progressive
Bits/(Pixel*Frame)          : 0.227
Stream size                 : 1.59 GiB (62%)
Title                       : Rip by ivanes
Writing library             : x264 core 158 r2984+49 6932f4a t_mod_New [0-bit@all X86]
Encoding settings           : cabac=1 / ref=11 / deblock=1:-3:-3 / analyse=0x3:0x113 / me=umh / subme=10 / psy=1 / fade_compensate=0.00 / psy_rd=1.00:0.00 / mixed_ref=1 / me_range=32 / chroma_me=1 / trellis=2 / 8x8dct=1 / cqm=0 / deadzone=21,11 / fast_pskip=0 / chroma_qp_offset=-2 / threads=12 / lookahead_threads=2 / sliced_threads=0 / nr=0 / decimate=1 / interlaced=0 / bluray_compat=0 / constrained_intra=0 / fgo=0 / bframes=11 / b_pyramid=2 / b_adapt=2 / b_bias=0 / direct=1 / weightb=1 / open_gop=0 / weightp=2 / keyint=240 / keyint_min=24 / scenecut=40 / intra_refresh=0 / rc_lookahead=60 / rc=crf / mbtree=0 / crf=14.8000 / qcomp=0.60 / qpmin=0:0:0 / qpmax=69:69:69 / qpstep=4 / vbv_maxrate=50000 / vbv_bufsize=62500 / crf_max=0.0 / nal_hrd=none / filler=0 / ip_ratio=1.40 / pb_ratio=1.30 / aq=1:1.00 / aq-sensitivity=10.00 / aq-factor=1.00:1.00:1.00 / aq2=0 / aq3=0
Default                     : Yes
Forced                      : No
Statistics Tags Issue       : mkvmerge v29.0.0 ('Like It Or Not') 64-bit 2019-10-13 11:14:16 / mkvmerge v4.4.0 ('Die Wiederkehr') сборка от Jan  3 2011 21:40:45 2019-10-16 18:02:03
FromStats_BitRate           : 1908580
FromStats_Duration          : 02:02:42.375000000
FromStats_FrameCount        : 176697
FromStats_StreamSize        : 1756461066

Audio #1
ID                          : 2
Format                      : AC-3
Format/Info                 : Audio Coding 3
Commercial name             : Dolby Digital
Codec ID                    : A_AC3
Duration                    : 2 h 2 min
Bit rate mode               : Constant
Bit rate                    : 192 kb/s
Channel(s)                  : 2 channels
Channel layout              : L R
Sampling rate               : 48.0 kHz
Frame rate                  : 31.250 FPS (1536 SPF)
Bit depth                   : 16 bits
Compression mode            : Lossy
Stream size                 : 169 MiB (6%)
Title                       : IdeaFilm
Language                    : Russian
Service kind                : Complete Main
Default                     : Yes
Forced                      : No

Audio #2
ID                          : 3
Format                      : AC-3
Format/Info                 : Audio Coding 3
Commercial name             : Dolby Digital
Codec ID                    : A_AC3
Duration                    : 2 h 2 min
Bit rate mode               : Constant
Bit rate                    : 448 kb/s
Channel(s)                  : 6 channels
Channel layout              : L R C LFE Ls Rs
Sampling rate               : 48.0 kHz
Frame rate                  : 31.250 FPS (1536 SPF)
Bit depth                   : 16 bits
Compression mode            : Lossy
Stream size                 : 393 MiB (15%)
Title                       : Кубик в Кубе
Language                    : Russian
Service kind                : Complete Main
Default                     : No
Forced                      : No

Audio #3
ID                          : 4
Format                      : AC-3
Format/Info                 : Audio Coding 3
Commercial name             : Dolby Digital
Codec ID                    : A_AC3
Duration                    : 2 h 2 min
Bit rate mode               : Constant
Bit rate                    : 448 kb/s
Channel(s)                  : 6 channels
Channel layout              : L R C LFE Ls Rs
Sampling rate               : 48.0 kHz
Frame rate                  : 31.250 FPS (1536 SPF)
Bit depth                   : 16 bits
Compression mode            : Lossy
Stream size                 : 393 MiB (15%)
Title                       : Original
Language                    : English
Service kind                : Complete Main
Default                     : No
Forced                      : No

Text #1
ID                          : 5
Format                      : UTF-8
Codec ID                    : S_TEXT/UTF8
Codec ID/Info               : UTF-8 Plain Text
Title                       : Full
Language                    : Russian
Default                     : No
Forced                      : No

Text #2
ID                          : 6
Format                      : UTF-8
Codec ID                    : S_TEXT/UTF8
Codec ID/Info               : UTF-8 Plain Text
Title                       : Full
Language                    : English
Default                     : No
Forced                      : No

скриншот  скриншот  скриншот  
pb.wtf
Kbober100 писал(а):

Есть реклама Как минимум в одном месте на 5:55-6:06 есть аудиореклама



Скачать Путь: Во все тяжкие через торрент https://i90.fastpic.ru/big/2019/1013/b1/e5b59c281ade9042d6e4d75ffb0976b1.jpg Скачать фильм Путь: Во все тяжкие через торрент бесплантно в хорошем качестве Описание: Джесси Пинкман сбежал от неонацистов. Не зная, куда ему податься, он скрывается от полиции, похитителей и прошлого. Теперь он ... 10 10 3
Торрент: Зарегистрирован [2019-10-16 18:18] · скачан: 62 раз
Статус: T временная
Размер: 2.57 GB
Как cкачать? Как скачать Путь: Во все тяжкие через торрент | qTorrent

% Раздел Тема Автор DL S | L
Фильмы 2019 [DVDrip, WEB-DLRip, HDrip] (DUB, MVO) [ 1.46 GB ] Путь: Во все тяжкие / El Camino: A Breaking Bad Movie [2019 WEB-DLRip] DVO [Кубик в Кубе] bober100 Скачать
12 | 0
Фильмы 2019 [DVDrip, WEB-DLRip, HDrip] (DUB, MVO) [ 3.31 GB ] Путь: Во все тяжкие / El Camino: A Breaking Bad Movie [2019 WEB-DLRip-AVC] MVO [Jaskier LostFilm IdeaFilm HamsterStudio] DVO [Кубик в Кубе] - ExKinoRay Enigma2010 Скачать
43 | 1
Фильмы (WEB-DL 720p, 1080p) [ 11.89 GB ] Путь: Во все тяжкие / El Camino: A Breaking Bad Movie [2019 WEB-DL 1080p] MVO [Jaskier LostFilm] DVO [Кубик в Кубе] - ExKinoRay Enigma2010 Скачать
235 | 12
T Фильмы (мультфильмы) cо спонсором показа (Новинки AVI/MKV) [ 5.7 GB ] Путь: Во все тяжкие / El Camino: A Breaking Bad Movie [2019 WEBRip 720p] DVO [Кубик в Кубе] bober100 Скачать
2 | 0
Фильмы (WEB-DL 720p, 1080p) [ 3.44 GB ] Путь: Во все тяжкие / El Camino: A Breaking Bad Movie [2019 WEB-DL 1080p] MVO [LostFilm] bober100 Скачать
5 | 0
Фильмы 2019 [DVDrip, WEB-DLRip, HDrip] (DUB, MVO) [ 1.45 GB ] Путь: Во все тяжкие / El Camino: A Breaking Bad Movie [2019 WEB-DLRip] MVO [Jaskier] bober100 Скачать
4 | 0
Фильмы (WEB-DL 720p, 1080p) [ 5.7 GB ] Путь: Во все тяжкие / El Camino: A Breaking Bad Movie [2019 WEB-DL 720p] MVO [Jaskier] bober100 Скачать
2 | 0

28-11-2019 20:33  

Отключить всю рекламу на сайте

    Дорогой пользователь! Огромная просьба, поблагодарите релизера, оцените раздачу и оставьте свои комментарий, если Вы скачали Путь: Во все тяжкие через торрент бесплатно! Внесите свою лепту в развитие PiratBit!
    Комментировать посты могут только пользователи прошедшие не сложную регистрацию
    Показать сообщения:    

    Путь: Во все тяжкие через торрент
    Скачать бесплатно Путь: Во все тяжкие
    Путь: Во все тяжкие скачать торрент
    Путь: Во все тяжкие смотреть онлайн
    Cкачать фильм Путь: Во все тяжкие бесплатно
    Путь: Во все тяжкие скачать торрент в хорошем качестве
    Путь: Во все тяжкие смотреть онлайн бесплатно в хорошем качестве


    Вы не можете начинать темы
    Вы не можете отвечать на сообщения
    Вы не можете редактировать свои сообщения
    Вы не можете удалять свои сообщения
    Вы не можете голосовать в опросах
    Вы не можете прикреплять файлы к сообщениям
    Вы можете скачивать файлы