Ссылка на приватное зеркало всего за 1$. Внимание количество ограничено!!!

OK

1+1

iTunes

мы

OK

1

WEB-DLRip

Джокер

Пифагор

Ведьмак / The Witcher сериал

Лицензия

ПШазам

ОК

Оно 2

iTunes

30
pack

Вам бонус

ВАЖНО

!!Акция!!

Alien_RageХит недели

RePack

Resident Evil 21

ИГРА 18+

pack

RePack

jed

RePack

fifa19

RePack

Assassins Creed: Odyssey

RePack

NEED FOR SPEED™ PAYBACK

4 сезон

9 сезон

Бесстыжие 9 сезон

Все сериалы

все сериалы на PB.wtf

RePack

FAR CRY 5
  

Дефолт / Gukgabudo-ui Nal (Чхве Гук-хи) [2018 г., драма, история, HDRip, Дубляж "iTunes"] pb.wtf

Дефолт через торрент pb.wtf

Размер: 711 MB | Добавлен: 3 мес. 6 д. назад | Торрент скачан:2 раза
Скачать  

16-10-2019 18:33 Дефолт Скачать торрент  

Дефолт / Gukgabudo-ui Nal
Год выпуска: 2018
Страна: Корея Южная / CJ Entertainment, Zip Cinema
Жанр: драма, история
Продолжительность: 01:54:22
Перевод: Дубляж (iTunes)
Субтитры: корейские (hardsub)

Режиссер: Чхве Гук-хи

rating

В ролях: Ким Хе-су, Ю А-ин, Хо Джун-хо, Чо У-джин, Венсан Кассель, Ким Хон-пха, Ом Хё-соп, Сон Ён-чхан, Квон Хэ-хё, Чо Хан-чхоль

Описание: В 1997 году южнокорейское правительство было уверено, что экономика на подъеме, и страну ждет стабильное процветание. Но по расчетам главы отдела по денежно-кредитной политике Банка Кореи в течение недели страна столкнется с финансовым кризисом. Женщина предлагает проинформировать население, но есть те, в чьих интересах умолчать о грядущем дефолте и нажиться на ситуации.

Качество: HDRip
Формат: AVI
Видео кодек: DivX
Аудио кодек: MP3
Видео: 640x360 (1.78:1), 24.000 fps, DivX Codec 4.x ~731 kbps avg, 0.13 bit/pixel
Аудио: 48 kHz, MPEG Layer 3, 2 ch, ~128.00 kbps avg
скриншот   скриншот   скриншот   скриншот  

Общее
Полное имя : F:\ФИЛЬМЫ\Дефолт.2018.D.HDRip.avi
Формат : AVI
Формат/Информация : Audio Video Interleave
Размер файла : 711 Мбайт
Продолжительность : 1 ч. 54 м.
Общий поток : 869 Кбит/сек
Программа кодирования : VirtualDubMod 1.5.10.3 | www.virtualdub-fr.org || (build 2550/release)
Библиотека кодирования : VirtualDubMod build 2550/release

Видео
Идентификатор : 0
Формат : MPEG-4 Visual
Профиль формата : Advanced Simple@L5
Настройки формата : BVOP3 / GMC3 / QPel
Параметр BVOP формата : 3
Параметр QPel формата : Да
Параметр GMC формата : 3 точки перехода
Параметр матрицы формата : Default (MPEG)
Идентификатор кодека : DIVX
Идентификатор кодека/Информация : Project Mayo
Идентификатор кодека/Подсказка : DivX 4
Продолжительность : 1 ч. 54 м.
Битрейт : 732 Кбит/сек
Ширина : 640 пикселей
Высота : 360 пикселей
Соотношение сторон : 16:9
Частота кадров : 24,000 кадра/сек
Цветовое пространство : YUV
Субдискретизация насыщенности : 4:2:0
Битовая глубина : 8 бит
Тип развёртки : Прогрессивная
Метод сжатия : С потерями
Бит/(Пиксели*Кадры) : 0.132
Размер потока : 599 Мбайт (84%)
Библиотека кодирования : XviD 1.2.1 (UTC 2008-12-04)

Аудио
Идентификатор : 1
Формат : MPEG Audio
Версия формата : Version 1
Профиль формата : Layer 3
Настройки формата : Joint stereo / MS Stereo
Идентификатор кодека : 55
Идентификатор кодека/Подсказка : MP3
Продолжительность : 1 ч. 54 м.
Вид битрейта : Постоянный
Битрейт : 128 Кбит/сек
Каналы : 2 канала
Частота : 48,0 КГц
Частота кадров : 41,667 кадра/сек (1152 SPF)
Метод сжатия : С потерями
Размер потока : 105 Мбайт (15%)
Выравнивание : Соединение по промежуткам
Продолжительность промежутка : 42 мс. (1,00 видеокадр)
Время предзагрузки промежутка : 504 мс.
Библиотека кодирования : LAME3.99r
Настройки программы : -m j -V 4 -q 2 -lowpass 17 -b 128

pb.wtf



Скачать Дефолт через торрент http://pic1.kartinco.top/images/12/z4sza.jpg Скачать фильм Дефолт через торрент бесплантно в хорошем качестве Описание: В 1997 году южнокорейское правительство было уверено, что экономика на подъеме, и страну ждет стабильное процветание. Но по ... 5 10 1
Торрент: Зарегистрирован [2019-10-16 18:33] · скачан: 2 раз
Статус: √ проверено
Размер: 711 MB
Как cкачать? Как скачать Дефолт через торрент | qTorrent

% Раздел Тема Автор DL S | L
Фильмы (Blu-ray, BD-Remux, HDDVD) [ 20.03 GB ] Дефолт / День национального банкротства / Gukgabudoeui nal / Default [2018 история BDRemux 1080p] killermax2013 Скачать
1 | 0
Азиатские фильмы [ 1.46 GB ] Дефолт / День национального банкротства / Default / Gukgabudoeui nal [2018 история BDRip] bober100 Скачать
2 | 0

28-11-2019 20:33  

Отключить всю рекламу на сайте

    Дорогой пользователь! Огромная просьба, поблагодарите релизера, оцените раздачу и оставьте свои комментарий, если Вы скачали Дефолт через торрент бесплатно! Внесите свою лепту в развитие PiratBit!
    Комментировать посты могут только пользователи прошедшие не сложную регистрацию
    Показать сообщения:    

    Дефолт через торрент
    Скачать бесплатно Дефолт
    Дефолт скачать торрент
    Дефолт смотреть онлайн
    Cкачать фильм Дефолт бесплатно
    Дефолт скачать торрент в хорошем качестве
    Дефолт смотреть онлайн бесплатно в хорошем качестве


    Вы не можете начинать темы
    Вы не можете отвечать на сообщения
    Вы не можете редактировать свои сообщения
    Вы не можете удалять свои сообщения
    Вы не можете голосовать в опросах
    Вы не можете прикреплять файлы к сообщениям
    Вы можете скачивать файлы