Ссылка на приватное зеркало всего за 1$. Внимание количество ограничено!!!

OK

1+1

iTunes

мы

OK

1

WEB-DLRip

Джокер

Пифагор

Ведьмак / The Witcher сериал

Лицензия

ПШазам

ОК

Оно 2

iTunes

30
pack

Вам бонус

ВАЖНО

!!Акция!!

Alien_RageХит недели

RePack

Resident Evil 21

ИГРА 18+

pack

RePack

jed

!!Акция!!

Alien_Rage

RePack

fifa19

RePack

Assassins Creed: Odyssey

RePack

NEED FOR SPEED™ PAYBACK

4 сезон

9 сезон

Бесстыжие 9 сезон

Все сериалы

все сериалы на PB.wtf

RePack

FAR CRY 5
  

Путь: Во все тяжкие / El Camino: A Breaking Bad Movie (Винс Гиллиган) [2019, драма, криминал, WEB-DL 720p] MVO [Jaskier] pb.wtf

Путь: Во все тяжкие через торрент pb.wtf

Раздают: 1 [ 0 KB/s ]
Размер: 5.7 GB | Добавлен: 3 мес. 3 д. назад | Торрент скачан:56 раз
Скачать  

17-10-2019 01:20 Путь: Во все тяжкие Скачать торрент  

Путь: Во все тяжкие. Фильм / El Camino: A Breaking Bad Movie
Год выпуска: 2019
Страна: США
Жанр: драма, криминал
Продолжительность: 02:02:42
Перевод: Профессиональный (многоголосый закадровый) | Jaskier
Субтитры: английские

Режиссер: Винс Гиллиган

rating


В ролях: Аарон Пол, Мэтт Джонс, Джонатан Бэнкс, Чарльз Бэйкер, Ларри Хэнкин и др.

Описание: Джесси Пинкман сбежал от неонацистов. Не зная, куда ему податься, он скрывается от полиции, похитителей и прошлого. Теперь он должен понять, как ему жить дальше.

Качество: WEB-DL 720p
Формат: MKV

Видео: MPEG-4 AVC, 5300 Кбит/с, 1280x534
Аудио#1: [RUS] AC3 | 48 KHz | 5.1 (Front: L С R Side: L R) + LFE | ~640 kbps
Аудио#2: [ENG] AC3 | 48 KHz | 5.1 (Front: L С R Side: L R) + LFE | ~640 kbps
скриншот  скриншот  скриншот  

Общее
Уникальный идентификатор : 236290118623830905077869360684756583262 (0xB1C3D24DF540054F8228C82F3F4F435E)
Полное имя : C:\El.Camino.A.Breaking.Bad.Movie.2019.WEB-DL.720p.Jaskier.MegaPeer.(qqss44).mkv
Формат : Matroska
Версия формата : Version 2
Размер файла : 5,70 Гбайт
Продолжительность : 2 ч. 2 м.
Общий поток : 6646 Кбит/сек
Дата кодирования : UTC 2019-10-16 20:49:28
Программа кодирования : mkvmerge v7.8.0 ('River Man') 32bit built on Apr 3 2015 12:11:22
Библиотека кодирования : libebml v1.3.1 + libmatroska v1.4.2

Видео
Идентификатор : 1
Формат : AVC
Формат/Информация : Advanced Video Codec
Профиль формата : High@L4.1
Настройки формата : CABAC / 12 Ref Frames
Параметр CABAC формата : Да
Параметр RefFrames формата : 12 кадров
Идентификатор кодека : V_MPEG4/ISO/AVC
Продолжительность : 2 ч. 2 м.
Битрейт : 5300 Кбит/сек
Ширина : 1280 пикселей
Высота : 534 пикселя
Соотношение сторон : 2,40:1
Режим частоты кадров : Постоянный
Частота кадров : 24,000 кадра/сек
Цветовое пространство : YUV
Субдискретизация насыщенности : 4:2:0
Битовая глубина : 8 бит
Тип развёртки : Прогрессивная
Бит/(Пиксели*Кадры) : 0.319
Размер потока : 4,49 Гбайт (79%)
Библиотека кодирования : x264 core 158 r2984+47 456d10a t_mod_New [0-bit@all X86_64]
Настройки программы : cabac=1 / ref=12 / deblock=1:-3:-3 / analyse=0x3:0x133 / me=umh / subme=10 / psy=1 / fade_compensate=0.00 / psy_rd=1.00:0.15 / mixed_ref=1 / me_range=48 / chroma_me=1 / trellis=2 / 8x8dct=1 / cqm=0 / deadzone=21,11 / fast_pskip=0 / chroma_qp_offset=-3 / threads=12 / lookahead_threads=2 / sliced_threads=0 / nr=0 / decimate=0 / interlaced=0 / bluray_compat=0 / constrained_intra=0 / fgo=0 / bframes=8 / b_pyramid=2 / b_adapt=2 / b_bias=0 / direct=3 / weightb=1 / open_gop=0 / weightp=2 / keyint=250 / keyint_min=24 / scenecut=40 / intra_refresh=0 / rc=crf / mbtree=0 / crf=16.0000 / qcomp=0.60 / qpmin=0:0:0 / qpmax=69:69:69 / qpstep=4 / ip_ratio=1.30 / pb_ratio=1.20 / aq=3:0.80 / aq-sensitivity=10.00 / aq-factor=1.00:1.00:1.00 / aq2=0 / aq3=0
Язык : English
Default : Да
Forced : Нет

Аудио #1
Идентификатор : 2
Формат : AC-3
Формат/Информация : Audio Coding 3
Коммерческое название : Dolby Digital
Идентификатор кодека : A_AC3
Продолжительность : 2 ч. 2 м.
Вид битрейта : Постоянный
Битрейт : 640 Кбит/сек
Каналы : 6 каналов
ChannelLayout : L R C LFE Ls Rs
Частота : 48,0 КГц
Частота кадров : 31,250 кадров/сек (1536 SPF)
Битовая глубина : 16 бит
Метод сжатия : С потерями
Размер потока : 562 Мбайт (10%)
Язык : Russian
ServiceKind/String : Complete Main
Default : Да
Forced : Нет

Аудио #2
Идентификатор : 3
Формат : AC-3
Формат/Информация : Audio Coding 3
Коммерческое название : Dolby Digital
Идентификатор кодека : A_AC3
Продолжительность : 2 ч. 2 м.
Вид битрейта : Постоянный
Битрейт : 640 Кбит/сек
Каналы : 6 каналов
ChannelLayout : L R C LFE Ls Rs
Частота : 48,0 КГц
Частота кадров : 31,250 кадров/сек (1536 SPF)
Битовая глубина : 16 бит
Метод сжатия : С потерями
Размер потока : 562 Мбайт (10%)
Язык : English
ServiceKind/String : Complete Main
Default : Нет
Forced : Нет

Текст
Идентификатор : 4
Формат : UTF-8
Идентификатор кодека : S_TEXT/UTF8
Идентификатор кодека/Информация : UTF-8 Plain Text
Заголовок : SDH
Язык : English
Default : Нет
Forced : Нет

pb.wtf



Скачать Путь: Во все тяжкие через торрент https://d.radikal.ru/d34/1910/16/4621bdfea819.png Скачать фильм Путь: Во все тяжкие через торрент бесплантно в хорошем качестве Описание: Джесси Пинкман сбежал от неонацистов. Не зная, куда ему податься, он скрывается от полиции, похитителей и прошлого. Теперь он ... 10 10 2
Торрент: Зарегистрирован [2019-10-17 01:20] · скачан: 56 раз
Статус: √ проверено
Размер: 5.7 GB
Как cкачать? Как скачать Путь: Во все тяжкие через торрент | qTorrent

% Раздел Тема Автор DL S | L
Фильмы 2019-2020 [DVDrip, WEB-DLRip, HDrip] (DUB, MVO) [ 1.46 GB ] Путь: Во все тяжкие / El Camino: A Breaking Bad Movie [2019 WEB-DLRip] DVO [Кубик в Кубе] bober100 Скачать
13 | 0
Фильмы 2019-2020 [DVDrip, WEB-DLRip, HDrip] (DUB, MVO) [ 3.31 GB ] Путь: Во все тяжкие / El Camino: A Breaking Bad Movie [2019 WEB-DLRip-AVC] MVO [Jaskier LostFilm IdeaFilm HamsterStudio] DVO [Кубик в Кубе] - ExKinoRay Enigma2010 Скачать
51 | 0
Фильмы (WEB-DL 720p, 1080p) [ 11.89 GB ] Путь: Во все тяжкие / El Camino: A Breaking Bad Movie [2019 WEB-DL 1080p] MVO [Jaskier LostFilm] DVO [Кубик в Кубе] - ExKinoRay Enigma2010 Скачать
300 | 20
T Фильмы (мультфильмы) cо спонсором показа (Новинки AVI/MKV) [ 5.7 GB ] Путь: Во все тяжкие / El Camino: A Breaking Bad Movie [2019 WEBRip 720p] DVO [Кубик в Кубе] bober100 Скачать
7 | 0
Фильмы (WEB-DL 720p, 1080p) [ 3.44 GB ] Путь: Во все тяжкие / El Camino: A Breaking Bad Movie [2019 WEB-DL 1080p] MVO [LostFilm] bober100 Скачать
37 | 2
Фильмы 2019-2020 [DVDrip, WEB-DLRip, HDrip] (DUB, MVO) [ 1.45 GB ] Путь: Во все тяжкие / El Camino: A Breaking Bad Movie [2019 WEB-DLRip] MVO [Jaskier] bober100 Скачать
5 | 0
Фильмы (WEB-DL 720p, 1080p) [ 11.18 GB ] Путь: Во все тяжкие / El Camino: A Breaking Bad Movie [2019 WEB-DL 1080p] MVO [Jaskier] bober100 Скачать
1 | 0

28-11-2019 20:33  

Отключить всю рекламу на сайте

    Дорогой пользователь! Огромная просьба, поблагодарите релизера, оцените раздачу и оставьте свои комментарий, если Вы скачали Путь: Во все тяжкие через торрент бесплатно! Внесите свою лепту в развитие PiratBit!
    Комментировать посты могут только пользователи прошедшие не сложную регистрацию
    Показать сообщения:    

    Путь: Во все тяжкие через торрент
    Скачать бесплатно Путь: Во все тяжкие
    Путь: Во все тяжкие скачать торрент
    Путь: Во все тяжкие смотреть онлайн
    Cкачать фильм Путь: Во все тяжкие бесплатно
    Путь: Во все тяжкие скачать торрент в хорошем качестве
    Путь: Во все тяжкие смотреть онлайн бесплатно в хорошем качестве


    Вы не можете начинать темы
    Вы не можете отвечать на сообщения
    Вы не можете редактировать свои сообщения
    Вы не можете удалять свои сообщения
    Вы не можете голосовать в опросах
    Вы не можете прикреплять файлы к сообщениям
    Вы можете скачивать файлы