новый адрес
Ссылка на приватное зеркало всего за 1$. Внимание количество ограничено!!!

iTunes

1+1

iTunes

мы

WEB-DL

1

iTunes

Чернобыль

iTunes

Ральф против интернета

Лицензия

ПШазам

Лицензия

Оно 2

Лицензия

30
pack

Вам бонус

ВАЖНО

!!Акция!!

Alien_RageХит недели

RePack

Resident Evil 21

ИГРА 18+

pack

RePack

jed

!!Акция!!

Alien_Rage

RePack

fifa19

RePack

Assassins Creed: Odyssey

RePack

NEED FOR SPEED™ PAYBACK

3 сезон

9 сезон

Бесстыжие 9 сезон

Все сериалы

все сериалы на PB.wtf

RePack

FAR CRY 5
Ребята, катастрофически не хватает 1900р. для оплаты серверов за Октябрь (всвязи с блокировками трафик упал в 3 раза), 1-2р., выручайте.
  

Путь: Во все тяжкие / El Camino: A Breaking Bad Movie (Винс Гиллиган) [2019, драма, криминал, WEB-DLRip-AVC] MVO [Jaskier, LostFilm, IdeaFilm, HamsterStudio] , DVO [Кубик в Кубе] - ExKinoRay pb.wtf

Путь: Во все тяжкие через торрент pb.wtf

Раздают: 85 [ 17 KB/s ] Качают: 1 [ 0 KB/s ]
Размер: 3.31 GB | Добавлен: 1 мес. 21 д. назад | Торрент скачан:698 раз
Скачать  

17-10-2019 02:47 Путь: Во все тяжкие Скачать торрент  

Информация о фильме
Название: Путь: Во все тяжкие
Оригинальное название: El Camino: A Breaking Bad Movie
Год выхода: 2019
Жанр: драма, криминал
Режиссер: Винс Гиллиган
В ролях: Аарон Пол, Мэтт Джонс, Джонатан Бэнкс, Чарльз Бэйкер, Ларри Хэнкин и др.

Описание: Пережив смерть друга и наставника, Джесси Пинкман оказался в плену у бандитов, но смог в итоге сбежать. Теперь его преследуют преступники и полиция, поэтому ему нужно как можно быстрее покинуть Альбукерке. Джесси удается найти временное убежище у своих старых приятелей Барсука и Тощего Пита, которые могут помочь ему ненадолго затаиться и прийти в себя. Но Пинкману необходимо раздобыть достаточное количество денег, чтобы воспользоваться услугами человека, способного обеспечить ему новую личность и вывести в безопасное место...

rating

Страна: США
Студия: Gran Via, High Bridge Productions, NetFlix, Sony Pictures Television
Продолжительность: 02:02:42
Перевод: Профессиональный (двухголосый закадровый) Кубик в Кубе
Профессиональный (многоголосый закадровый) LostFilm
Профессиональный (многоголосый, закадровый) Jaskier
Профессиональный (многоголосый, закадровый) IdeaFilm
Любительский (многоголосый, закадровый) HamsterStudio

Формат: MKV
Качество: WEB-DLRip-AVC
Видео: MPEG-4 AVC, 1750 Кбит/с, 1024x426, 24.000 fps
Aудио#1: [RUS] AC3 | 48 KHz | 5.1 ch | ~448 kbps - Jaskier
Aудио#2: [RUS] AC3 | 48 KHz | 5.1 ch | ~448 kbps - Кубик в Кубе
Aудио#3: [RUS] AC3 | 48 KHz | 2.1 ch | ~384 kbps - LostFilm
Aудио#4: [RUS] AC3 | 48 KHz | 2.1 ch | ~384 kbps - IdeaFilm
Aудио#5: [RUS] AC3 | 48 KHz | 2.1 ch | ~384 kbps - HamsterStudio
Aудио#6: [ENG] AC3 | 48 KHz | 5.1 ch | ~448 kbps - English
Субтитры: Русские, английские
General
Unique ID : 172080703570771314967490009697407287640 (0x817589B9704297CFB06381F7CC714158)
Complete name : F:\El.Camino.A.Breaking.Bad.Movie.2019.5xRus.AVC.ExKinoRay.mkv
Format : Matroska
Format version : Version 2
File size : 3.31 GiB
Duration : 2 h 2 min
Overall bit rate : 3 863 kb/s
Movie name : El Camino A Breaking Bad Movie 2019 from ExKinoRay
Encoded date : UTC 2019-10-17 01:36:07
Writing application : mkvmerge v5.6.0 ('Kenya Kane') built on May 27 2012 16:44:04
Writing library : libebml v1.2.3 + libmatroska v1.3.0

Video
ID : 1
Format : AVC
Format/Info : Advanced Video Codec
Format profile : High@L4.1
Format settings, CABAC : Yes
Format settings, ReFrames : 11 frames
Codec ID : V_MPEG4/ISO/AVC
Duration : 2 h 2 min
Bit rate : 1 750 kb/s
Width : 1 024 pixels
Height : 426 pixels
Display aspect ratio : 2.40:1
Frame rate mode : Constant
Frame rate : 24.000 FPS
Color space : YUV
Chroma subsampling : 4:2:0
Bit depth : 8 bits
Scan type : Progressive
Bits/(Pixel*Frame) : 0.167
Stream size : 1.44 GiB (43%)
Title : Enigma
Writing library : x264 core 152 r2851 ba24899
Encoding settings : cabac=1 / ref=11 / deblock=1:-2:-2 / analyse=0x3:0x113 / me=umh / subme=10 / psy=1 / psy_rd=1.00:0.05 / mixed_ref=1 / me_range=32 / chroma_me=1 / trellis=2 / 8x8dct=1 / cqm=0 / deadzone=21,11 / fast_pskip=0 / chroma_qp_offset=-3 / threads=12 / lookahead_threads=3 / sliced_threads=0 / nr=0 / decimate=0 / interlaced=0 / bluray_compat=0 / constrained_intra=0 / bframes=11 / b_pyramid=2 / b_adapt=2 / b_bias=0 / direct=3 / weightb=1 / open_gop=0 / weightp=2 / keyint=240 / keyint_min=24 / scenecut=40 / intra_refresh=0 / rc=2pass / mbtree=0 / bitrate=1750 / ratetol=1.0 / qcomp=0.60 / qpmin=0 / qpmax=51 / qpstep=4 / cplxblur=20.0 / qblur=0.5 / ip_ratio=1.40 / pb_ratio=1.30 / aq=1:1.00
Language : English
Default : Yes
Forced : No
Color range : Limited
Color primaries : BT.709
Transfer characteristics : BT.709
Matrix coefficients : BT.709

Audio #1
ID : 2
Format : AC-3
Format/Info : Audio Coding 3
Mode extension : CM (complete main)
Format settings, Endianness : Big
Codec ID : A_AC3
Duration : 2 h 2 min
Bit rate mode : Constant
Bit rate : 448 kb/s
Channel(s) : 6 channels
Channel positions : Front: L C R, Side: L R, LFE
Sampling rate : 48.0 kHz
Frame rate : 31.250 FPS (1536 spf)
Compression mode : Lossy
Stream size : 393 MiB (12%)
Title : MVO (Jaskier)
Language : Russian
Default : Yes
Forced : No

Audio #2
ID : 3
Format : AC-3
Format/Info : Audio Coding 3
Mode extension : CM (complete main)
Format settings, Endianness : Big
Codec ID : A_AC3
Duration : 2 h 2 min
Bit rate mode : Constant
Bit rate : 448 kb/s
Channel(s) : 6 channels
Channel positions : Front: L C R, Side: L R, LFE
Sampling rate : 48.0 kHz
Frame rate : 31.250 FPS (1536 spf)
Compression mode : Lossy
Stream size : 393 MiB (12%)
Title : DVO (KvK)
Language : Russian
Default : No
Forced : No

Audio #3
ID : 4
Format : AC-3
Format/Info : Audio Coding 3
Mode extension : CM (complete main)
Format settings, Endianness : Big
Codec ID : A_AC3
Duration : 2 h 2 min
Bit rate mode : Constant
Bit rate : 384 kb/s
Channel(s) : 2 channels
Channel positions : Front: L R
Sampling rate : 48.0 kHz
Frame rate : 31.250 FPS (1536 spf)
Compression mode : Lossy
Stream size : 337 MiB (10%)
Title : MVO (LostFilm)
Language : Russian
Default : No
Forced : No

Audio #4
ID : 5
Format : AC-3
Format/Info : Audio Coding 3
Mode extension : CM (complete main)
Format settings, Endianness : Big
Codec ID : A_AC3
Duration : 2 h 2 min
Bit rate mode : Constant
Bit rate : 192 kb/s
Channel(s) : 2 channels
Channel positions : Front: L R
Sampling rate : 48.0 kHz
Frame rate : 31.250 FPS (1536 spf)
Compression mode : Lossy
Stream size : 169 MiB (5%)
Title : MVO (IdeaFilm)
Language : Russian
Default : No
Forced : No

Audio #5
ID : 6
Format : AC-3
Format/Info : Audio Coding 3
Mode extension : CM (complete main)
Format settings, Endianness : Big
Codec ID : A_AC3
Duration : 2 h 2 min
Bit rate mode : Constant
Bit rate : 256 kb/s
Channel(s) : 2 channels
Channel positions : Front: L R
Sampling rate : 48.0 kHz
Frame rate : 31.250 FPS (1536 spf)
Compression mode : Lossy
Stream size : 225 MiB (7%)
Title : MVO (HamsterStudio)
Language : Russian
Default : No
Forced : No

Audio #6
ID : 7
Format : AC-3
Format/Info : Audio Coding 3
Mode extension : CM (complete main)
Format settings, Endianness : Big
Codec ID : A_AC3
Duration : 2 h 2 min
Bit rate mode : Constant
Bit rate : 384 kb/s
Channel(s) : 6 channels
Channel positions : Front: L C R, Side: L R, LFE
Sampling rate : 48.0 kHz
Frame rate : 31.250 FPS (1536 spf)
Compression mode : Lossy
Stream size : 337 MiB (10%)
Title : Original
Language : English
Default : No
Forced : No

Text #1
ID : 8
Format : UTF-8
Codec ID : S_TEXT/UTF8
Codec ID/Info : UTF-8 Plain Text
Language : Russian
Default : No
Forced : No

Text #2
ID : 9
Format : UTF-8
Codec ID : S_TEXT/UTF8
Codec ID/Info : UTF-8 Plain Text
Title : SDH
Language : English
Default : No
Forced : No


Релиз от:

Автор релиза: pb.wtf



Скачать Путь: Во все тяжкие через торрент https://d.radikal.ru/d22/1910/4d/33553a5ea7ea.png Скачать фильм Путь: Во все тяжкие через торрент бесплантно в хорошем качестве Описание: Пережив смерть друга и наставника, Джесси Пинкман оказался в плену у бандитов, но смог в итоге сбежать. Теперь его преследуют ... 9.5 10 13
Info! Золотая раздача, скачанное не засчитывается.
Торрент: Зарегистрирован [2019-10-17 02:47] · скачан: 698 раз
Статус: √ проверено
Размер: 3.31 GB
Как cкачать? Как скачать Путь: Во все тяжкие через торрент | qTorrent

% Раздел Тема Автор DL S | L
Фильмы (WEB-DL 720p, 1080p) [ 11.89 GB ] Путь: Во все тяжкие / El Camino: A Breaking Bad Movie [2019 WEB-DL 1080p] MVO [Jaskier LostFilm] DVO [Кубик в Кубе] - ExKinoRay Enigma2010 Скачать
464 | 32

28-11-2019 20:33  

Отключить всю рекламу на сайте

18-10-2019 11:05 Путь: Во все тяжкие Скачать торрент  

спасибо за то-что есть перевод кубикаpb.wtf



19-10-2019 19:14 Путь: Во все тяжкие Скачать торрент  

не пойму, откуда такой рейтинг, не смотрел сериал, я вообще их не смотрю. но фильм просто НИ О ЧЕМ. Честно, я люблю смотреть фильмы и очень редко бывает такое чувство, что зря потратил время, и вот сейчас прям вот точно зря.pb.wtf



20-10-2019 09:24 Путь: Во все тяжкие Скачать торрент  

kosrv1 писал(а):

не пойму, откуда такой рейтинг, не смотрел сериал, я вообще их не смотрю. но фильм просто НИ О ЧЕМ. Честно, я люблю смотреть фильмы и очень редко бывает такое чувство, что зря потратил время, и вот сейчас прям вот точно зря.

нахрена ты его скачал если не смотрел сериал?), это продолжение сериала как бэpb.wtf



22-10-2019 12:25 Путь: Во все тяжкие Скачать торрент  

ux.loki писал(а):

kosrv1 писал(а):

не пойму, откуда такой рейтинг, не смотрел сериал, я вообще их не смотрю. но фильм просто НИ О ЧЕМ. Честно, я люблю смотреть фильмы и очень редко бывает такое чувство, что зря потратил время, и вот сейчас прям вот точно зря.

нахрена ты его скачал если не смотрел сериал?), это продолжение сериала как бэ

Я смотрел сериал и честно не понимаю почему сериал многим нравился, это такой себе сериальчик на самом деле. И прошлый коментатор был прав, фильм вообще отстойный и зачем было его снимать вообще? О чём он? Оставил только ещё больше вопросов после себя.pb.wtf



    Дорогой пользователь! Огромная просьба, поблагодарите релизера, оцените раздачу и оставьте свои комментарий, если Вы скачали Путь: Во все тяжкие через торрент бесплатно! Внесите свою лепту в развитие PiratBit!
    Комментировать посты могут только пользователи прошедшие не сложную регистрацию
    Показать сообщения:    

    Путь: Во все тяжкие через торрент
    Скачать бесплатно Путь: Во все тяжкие
    Путь: Во все тяжкие скачать торрент
    Путь: Во все тяжкие смотреть онлайн
    Cкачать фильм Путь: Во все тяжкие бесплатно
    Путь: Во все тяжкие скачать торрент в хорошем качестве
    Путь: Во все тяжкие смотреть онлайн бесплатно в хорошем качестве


    Вы не можете начинать темы
    Вы не можете отвечать на сообщения
    Вы не можете редактировать свои сообщения
    Вы не можете удалять свои сообщения
    Вы не можете голосовать в опросах
    Вы не можете прикреплять файлы к сообщениям
    Вы можете скачивать файлы