Ссылка на приватное зеркало всего за 1$. Внимание количество ограничено!!!

OK

1+1

iTunes

мы

OK

1

WEB-DLRip

Джокер

Пифагор

Ведьмак / The Witcher сериал

iTunes

ПШазам

ОК

Оно 2

iTunes

30
pack

Вам бонус

ВАЖНО

!!Акция!!

Alien_RageХит недели

RePack

Resident Evil 21

ИГРА 18+

pack

RePack

jed

RePack

fifa19

RePack

Assassins Creed: Odyssey

RePack

NEED FOR SPEED™ PAYBACK

4 сезон

9 сезон

Бесстыжие 9 сезон

Все сериалы

все сериалы на PB.wtf

RePack

FAR CRY 5
  

Мэри Райли / Mary Reilly (Стивен Фрирз) [1996, драма, триллер, BDRip (AVC) by msltel] 2 x MVO, DVO, 2 x AVO pb.wtf

Мэри Райли через торрент pb.wtf

Размер: 4 GB | Добавлен: 3 мес. 8 д. назад | Торрент скачан:6 раз
Скачать  

17-10-2019 06:21 Мэри Райли Скачать торрент  

Название: Мэри Райли
Оригинальное название: Mary Reilly
Год выпуска: 1996
Страна: США, Великобритания
Жанр: драма, триллер
Продолжительность: 01:48:24
Перевод: профессиональный многоголосый, профессиональный двухголосый, авторский

Режиссер: Стивен Фрирз
В ролях: Джулия Робертс, Джон Малкович, Джордж Коул, Кэти Стафф, Гленн Клоуз, Майкл Гэмбон, Майкл Шин, Брона Галлахер, Линда Бассетт, Генри Гудман

О фильме: Зловещая тайна доктора Джекилла и мистера Хайда… Всю правду об ужасных событиях, происходивших в доме доктора, до конца знает только один человек — служанка Мэри Райли. Только она стала свидетельницей всего того, что происходило с хозяином и его таинственным приятелем, имевшим привычку появляться именно тогда, когда Джекилла не было дома... Сюжет фильма основан на одноимённом романе американской писательницы Валери Мартин, в котором та показала события повести Р. Стивенсона «Странная история доктора Джекила и мистера Хайда» глазами служанки Мэри Райли.



Качество: BDRip (AVC)
Формат: MKV
Видео: MPEG-4 AVC, 3680 Kбит/с, 1024x576
Аудио 1: русский, AC3, 448 kbps, 6 ch, 48 kHz [закадровый многоголосый, Видеосервис]
Аудио 2: русский, AC3, 384 kbps, 2 ch, 48 kHz [закадровый многоголосый, OPT]
Аудио 3: русский, AC3, 192 kbps, 2 ch, 48 kHz [закадровый двухголосый, SDI Media]
Аудио 4: русский, AC3, 192 kbps, 2 ch, 48 kHz [авторский, Сергей Визгунов]
Аудио 5: русский, AC3, 192 kbps, 2 ch, 48 kHz [авторский, Пётр Карцев]
Аудио 6: английский, AC3, 192 kbps, 2 ch, 48 kHz [оригинал]
Субтитры: русские
Главы/чаптеры
Общее
Уникальный идентификатор : 206421416195600394493663318898402470037 (0x9B4B5193CB0433AD8EB32DD81DE92895)
Полное имя : D:\Video\Мэри Райли.1996.BDRip (AVC) by msltel.mkv
Формат : Matroska
Версия формата : Version 4
Размер файла : 4,00 Гбайт
Продолжительность : 1 ч. 48 м.
Общий поток : 5281 Кбит/сек
Название фильма : Rip by msltel
Дата кодирования : UTC 2019-10-17 01:29:09
Программа кодирования : mkvmerge v8.2.0 ('World of Adventure') 64bit
Библиотека кодирования : libebml v1.3.1 + libmatroska v1.4.2

Видео
Идентификатор : 1
Формат : AVC
Формат/Информация : Advanced Video Codec
Профиль формата : High@L4.1
Настройки формата : CABAC / 9 Ref Frames
Параметр CABAC формата : Да
Параметр RefFrames формата : 9 кадров
Идентификатор кодека : V_MPEG4/ISO/AVC
Продолжительность : 1 ч. 48 м.
Битрейт : 3680 Кбит/сек
Ширина : 1024 пикселя
Высота : 576 пикселей
Соотношение сторон : 16:9
Режим частоты кадров : Постоянный
Частота кадров : 23,976 (24000/1001) кадра/сек
Цветовое пространство : YUV
Субдискретизация насыщенности : 4:2:0
Битовая глубина : 8 бит
Тип развёртки : Прогрессивная
Бит/(Пиксели*Кадры) : 0.260
Размер потока : 2,79 Гбайт (70%)
Библиотека кодирования : x264 core 157 r2935 545de2f
Настройки программы : cabac=1 / ref=9 / deblock=1:-2:-2 / analyse=0x3:0x113 / me=umh / subme=11 / psy=1 / psy_rd=1.00:0.15 / mixed_ref=1 / me_range=32 / chroma_me=1 / trellis=2 / 8x8dct=1 / cqm=0 / deadzone=21,11 / fast_pskip=0 / chroma_qp_offset=-3 / threads=6 / lookahead_threads=1 / sliced_threads=0 / nr=0 / decimate=1 / interlaced=0 / bluray_compat=0 / constrained_intra=0 / bframes=11 / b_pyramid=2 / b_adapt=2 / b_bias=0 / direct=1 / weightb=1 / open_gop=0 / weightp=2 / keyint=230 / keyint_min=23 / scenecut=40 / intra_refresh=0 / rc_lookahead=40 / rc=crf / mbtree=1 / crf=16.8 / qcomp=0.60 / qpmin=0 / qpmax=69 / qpstep=4 / vbv_maxrate=50000 / vbv_bufsize=62500 / crf_max=0.0 / nal_hrd=none / filler=0 / ip_ratio=1.40 / aq=1:1.00
Язык : English
Default : Да
Forced : Нет

Аудио #1
Идентификатор : 2
Формат : AC-3
Формат/Информация : Audio Coding 3
Коммерческое название : Dolby Digital
Идентификатор кодека : A_AC3
Продолжительность : 1 ч. 48 м.
Вид битрейта : Постоянный
Битрейт : 448 Кбит/сек
Каналы : 6 каналов
ChannelLayout : L R C LFE Ls Rs
Частота : 48,0 КГц
Частота кадров : 31,250 кадров/сек (1536 SPF)
Метод сжатия : С потерями
Размер потока : 347 Мбайт (8%)
Заголовок : MVO Видеосервис
Язык : Russian
ServiceKind/String : Complete Main
Default : Да
Forced : Нет

Аудио #2
Идентификатор : 3
Формат : AC-3
Формат/Информация : Audio Coding 3
Коммерческое название : Dolby Digital
Идентификатор кодека : A_AC3
Продолжительность : 1 ч. 48 м.
Вид битрейта : Постоянный
Битрейт : 384 Кбит/сек
Каналы : 2 канала
ChannelLayout : L R
Частота : 48,0 КГц
Частота кадров : 31,250 кадров/сек (1536 SPF)
Метод сжатия : С потерями
Размер потока : 298 Мбайт (7%)
Заголовок : MVO OPT
Язык : Russian
ServiceKind/String : Complete Main
Default : Нет
Forced : Нет

Аудио #3
Идентификатор : 4
Формат : AC-3
Формат/Информация : Audio Coding 3
Коммерческое название : Dolby Digital
Идентификатор кодека : A_AC3
Продолжительность : 1 ч. 48 м.
Вид битрейта : Постоянный
Битрейт : 192 Кбит/сек
Каналы : 2 канала
ChannelLayout : L R
Частота : 48,0 КГц
Частота кадров : 31,250 кадров/сек (1536 SPF)
Метод сжатия : С потерями
Размер потока : 149 Мбайт (4%)
Заголовок : DVO SDI Media
Язык : Russian
ServiceKind/String : Complete Main
Default : Нет
Forced : Нет

Аудио #4
Идентификатор : 5
Формат : AC-3
Формат/Информация : Audio Coding 3
Коммерческое название : Dolby Digital
Идентификатор кодека : A_AC3
Продолжительность : 1 ч. 48 м.
Вид битрейта : Постоянный
Битрейт : 192 Кбит/сек
Каналы : 2 канала
ChannelLayout : L R
Частота : 48,0 КГц
Частота кадров : 31,250 кадров/сек (1536 SPF)
Метод сжатия : С потерями
Размер потока : 149 Мбайт (4%)
Заголовок : Сергей Визгунов
Язык : Russian
ServiceKind/String : Complete Main
Default : Нет
Forced : Нет

Аудио #5
Идентификатор : 6
Формат : AC-3
Формат/Информация : Audio Coding 3
Коммерческое название : Dolby Digital
Идентификатор кодека : A_AC3
Продолжительность : 1 ч. 48 м.
Вид битрейта : Постоянный
Битрейт : 192 Кбит/сек
Каналы : 2 канала
ChannelLayout : L R
Частота : 48,0 КГц
Частота кадров : 31,250 кадров/сек (1536 SPF)
Метод сжатия : С потерями
Размер потока : 149 Мбайт (4%)
Заголовок : Пётр Карцев
Язык : Russian
ServiceKind/String : Complete Main
Default : Нет
Forced : Нет

Аудио #6
Идентификатор : 7
Формат : AC-3
Формат/Информация : Audio Coding 3
Коммерческое название : Dolby Digital
Идентификатор кодека : A_AC3
Продолжительность : 1 ч. 48 м.
Вид битрейта : Постоянный
Битрейт : 192 Кбит/сек
Каналы : 2 канала
ChannelLayout : L R
Частота : 48,0 КГц
Частота кадров : 31,250 кадров/сек (1536 SPF)
Метод сжатия : С потерями
Размер потока : 149 Мбайт (4%)
Заголовок : original
Язык : English
ServiceKind/String : Complete Main
Default : Нет
Forced : Нет

Текст
Идентификатор : 8
Формат : UTF-8
Идентификатор кодека : S_TEXT/UTF8
Идентификатор кодека/Информация : UTF-8 Plain Text
Продолжительность : 1 ч. 42 м.
Битрейт : 60 бит/сек
ElementCount : 822
Размер потока : 45,9 Кбайт (0%)
Заголовок : русские
Язык : Russian
Default : Нет
Forced : Нет

Меню
00:00:00.000 : :Chapter 1
00:05:44.052 : :Chapter 2
00:15:03.653 : :Chapter 3
00:16:50.969 : :Chapter 4
00:22:31.601 : :Chapter 5
00:24:23.463 : :Chapter 6
00:27:55.550 : :Chapter 7
00:29:50.081 : :Chapter 8
00:31:40.316 : :Chapter 9
00:37:15.276 : :Chapter 10
00:40:31.431 : :Chapter 11
00:43:45.291 : :Chapter 12
00:48:39.294 : :Chapter 13
00:51:14.657 : :Chapter 14
00:53:22.994 : :Chapter 15
00:58:27.465 : :Chapter 16
01:02:27.163 : :Chapter 17
01:06:05.173 : :Chapter 18
01:07:33.011 : :Chapter 19
01:09:35.008 : :Chapter 20
01:14:02.859 : :Chapter 21
01:20:33.750 : :Chapter 22
01:22:50.678 : :Chapter 23
01:28:32.812 : :Chapter 24
01:30:51.201 : :Chapter 25
01:33:05.417 : :Chapter 26
01:36:49.225 : :Chapter 27
01:39:20.251 : :Chapter 28
01:45:10.476 : :Chapter 29
pb.wtf



Скачать Мэри Райли через торрент https://d.radikal.ru/d16/1910/e7/3d4ed616e41a.jpg Скачать фильм Мэри Райли через торрент бесплантно в хорошем качестве О фильме: Зловещая тайна доктора Джекилла и мистера Хайда… Всю правду об ужасных событиях, происходивших в доме доктора, до конца знает ... 5 10 1
Торрент: Зарегистрирован [2019-10-17 06:21] · скачан: 6 раз
Статус: √ проверено
Размер: 4 GB
Как cкачать? Как скачать Мэри Райли через торрент | qTorrent

% Раздел Тема Автор DL S | L
Фильмы [HD 720p, 1080p] (Хороший звук DUB, MVO) [ 16 GB ] Мэри Райли / Mary Reilly [1996 BDRip 1080p by msltel] 2 x MVO DVO 2 x AVO msltel Скачать
1 | 0
Фильмы [HD 720p, 1080p] (Хороший звук DUB, MVO) [ 6.71 GB ] Мэри Райли / Mary Reilly [1996 BDRip 720p by msltel] 2 x MVO DVO 2 x AVO msltel Скачать
1 | 0

28-11-2019 20:33  

Отключить всю рекламу на сайте

    Дорогой пользователь! Огромная просьба, поблагодарите релизера, оцените раздачу и оставьте свои комментарий, если Вы скачали Мэри Райли через торрент бесплатно! Внесите свою лепту в развитие PiratBit!
    Комментировать посты могут только пользователи прошедшие не сложную регистрацию
    Показать сообщения:    

    Мэри Райли через торрент
    Скачать бесплатно Мэри Райли
    Мэри Райли скачать торрент
    Мэри Райли смотреть онлайн
    Cкачать фильм Мэри Райли бесплатно
    Мэри Райли скачать торрент в хорошем качестве
    Мэри Райли смотреть онлайн бесплатно в хорошем качестве


    Вы не можете начинать темы
    Вы не можете отвечать на сообщения
    Вы не можете редактировать свои сообщения
    Вы не можете удалять свои сообщения
    Вы не можете голосовать в опросах
    Вы не можете прикреплять файлы к сообщениям
    Вы можете скачивать файлы