Ссылка на приватное зеркало нашего сайта всего за 1$. Внимание количество ограничено!!!

2 сезон

iTunes

1 сезон

1

iTunes

iTunes

iTunes

1 сезон

RePack

30

ИГРА 18+

pack

ВАЖНО

!!Акция!!

Alien_RageХит недели

RePack

MK11
pack

Забери бонус

RePack

jed

!!Акция!!

Alien_Rage

RePack

fifa19

RePack

Assassins Creed: Odyssey

RePack

NEED FOR SPEED™ PAYBACK

4 сезон

9 сезон

Бесстыжие 9 сезон

Все сериалы

все сериалы на PB.wtf

RePack

FAR CRY 5
  

Холодные берега / Сезон: 1 / Серии: 1-8 из 8 (Сергей Комаров) [2019, Триллер, HDTVRip] pb.wtf

Холодные берега через торрент pb.wtf

Размер: 4.35 GB | Добавлен: 1 год назад | Торрент скачан:236 раз
Скачать  

18-10-2019 00:57 Холодные берега Скачать торрент  

Холодные берега
Год выпуска: 2019
Страна: Россия
Жанр: Триллер
Продолжительность: ~ 00:48:00
Перевод: Не требуется
Субтитры: отсутствуют

Режиссер: Сергей Комаров

rating

В ролях: Кирилл Сафонов, Екатерина Вилкова, Александр Горбатов, Анастасия Микульчина, Сергей Пускепалис, Виталий Шпортько, Никита Панов

Описание: Вот уже несколько месяцев жители Озерска живут в постоянном страхе – в городе появился маньяк, который уродует и душит молодых женщин. После ссоры с мужем, богатая наследница Мария Воронцова пропадает без вести. Начальник отделения полиции, Борис Новинский, поручает это дело молодому следователю, вчерашнему стажеру и своей дочери Алине Новинской. Поиски Воронцовой заканчиваются безрезультатно, но они становятся поводом к сближению Алины и мужа Марии, Марка. Через четыре года у них крепкая семья. Однажды Марк отправляется в командировку и встречает женщину, как две капли воды похожую на Марию. Марк не в силах справиться с вновь нахлынувшими на него чувствами и бросает Алину ради женщины, так пугающе похожей на его первую жену. Между тем, в Озерске возобновляется волна убийств - судя по почерку, таинственный маньяк, о котором все уже забыли, снова выходит на охоту. Алина возвращается к полицейской работе и поискам маньяка, которые приведут ее к шокирующей разгадке…

Качество: HDTVRip
Формат: AVI

Видео: XviD build 73, 720x400 (16:9), 25.000 fps, ~ 1500 Kbps (~ 0.200 bit/pixel)
Аудио: 48.0 kHz, AC3, 2/0 ch, 192 kbps
скриншот  скриншот  скриншот  скриншот  

General
Complete name : D:RazdachiHolodnye.Berega.2019.HDTVRip.GeneralFilmHolodnye.Berega.e01.avi
Format : AVI
Format/Info : Audio Video Interleave
File size : 557 MiB
Duration : 45 min 46 s
Overall bit rate : 1 701 kb/s
Writing application : VirtualDubMod 1.5.10.3 | www.virtualdub-fr.org || (build 2550/release)
Writing library : VirtualDubMod build 2550/release

Video
ID : 0
Format : MPEG-4 Visual
Format profile : Advanced Simple@L5
Format settings : BVOP1 / Custom Matrix
Format settings, BVOP : 1
Format settings, QPel : No
Format settings, GMC : No warppoints
Format settings, Matrix : Custom
Codec ID : XVID
Codec ID/Hint : XviD
Duration : 45 min 46 s
Bit rate : 1 499 kb/s
Width : 720 pixels
Height : 400 pixels
Display aspect ratio : 16:9
Frame rate : 25.000 FPS
Color space : YUV
Chroma subsampling : 4:2:0
Bit depth : 8 bits
Scan type : Progressive
Compression mode : Lossy
Bits/(Pixel*Frame) : 0.208
Stream size : 491 MiB (88%)
Writing library : XviD 73

Audio
ID : 1
Format : AC-3
Format/Info : Audio Coding 3
Commercial name : Dolby Digital
Codec ID : 2000
Duration : 45 min 46 s
Bit rate mode : Constant
Bit rate : 192 kb/s
Channel(s) : 2 channels
Channel layout : L R
Sampling rate : 48.0 kHz
Frame rate : 31.250 FPS (1536 SPF)
Bit depth : 16 bits
Compression mode : Lossy
Stream size : 62.9 MiB (11%)
Alignment : Split accross interleaves
Interleave, duration : 40 ms (1.00 video frame)
Interleave, preload duratio : 500 ms
Service kind : Complete Main

pb.wtf



Скачать Холодные берега через торрент https://i86.fastpic.ru/big/2019/1017/e8/2ccba45a6fac593b2ecaed37f8d410e8.jpg Скачать фильм Холодные берега через торрент бесплантно в хорошем качестве Описание: Вот уже несколько месяцев жители Озерска живут в постоянном страхе – в городе появился маньяк, который уродует и душит молодых ... 8 10 5
Торрент: Зарегистрирован [2019-10-18 00:57] · скачан: 236 раз
Статус: √ проверено
Размер: 4.35 GB
Как cкачать? Как скачать Холодные берега через торрент | qTorrent

% Раздел Тема Автор DL S | L
Наши сериалы [ 21.57 GB ] Холодные берега / Сезон: 1 / Серии: 1-8 из 8 [2019 HDTV 1080i] bober100 Скачать
1 | 0
Наши сериалы [ 10.42 GB ] Холодные берега / Сезон: 1 / Серии: 1-8 из 8 [2019 HDTVRip 720p] bober100 Скачать
1 | 0
Наши сериалы [ 4.69 GB ] Холодные берега / Сезон: 1 / Серии: 1-8 из 8 [2019 SATRip] bober100 Скачать
2 | 0

28-11-2019 20:33  

Отключить всю рекламу на сайте

    Дорогой пользователь! Огромная просьба, поблагодарите релизера, оцените раздачу и оставьте свои комментарий, если Вы скачали Холодные берега через торрент бесплатно! Внесите свою лепту в развитие PiratBit!
    Комментировать посты могут только пользователи прошедшие не сложную регистрацию
    Показать сообщения:    

    Холодные берега через торрент
    Скачать бесплатно Холодные берега
    Холодные берега скачать торрент
    Холодные берега смотреть онлайн
    Cкачать фильм Холодные берега бесплатно
    Холодные берега скачать торрент в хорошем качестве
    Холодные берега смотреть онлайн бесплатно в хорошем качестве


    Вы не можете начинать темы
    Вы не можете отвечать на сообщения
    Вы не можете редактировать свои сообщения
    Вы не можете удалять свои сообщения
    Вы не можете голосовать в опросах
    Вы не можете прикреплять файлы к сообщениям
    Вы можете скачивать файлы