Ссылка на приватное зеркало нашего сайта всего за 1$. Внимание количество ограничено!!!

2 сезон

iTunes

1 сезон

1

2 сезон

2 сезон

iTunes

1 сезон

RePack

30

Новинка

ВАЖНО

ИГРА 18+

pack

RePack

MK11
pack

Забери бонус

RePack

jed

!!Акция!!

Alien_Rage

RePack

fifa19

RePack

Assassins Creed: Odyssey

RePack

NEED FOR SPEED™ PAYBACK

4 сезон

9 сезон

Бесстыжие 9 сезон

Все сериалы

все сериалы на PB.wtf

RePack

FAR CRY 5
  

Раны / Wounds (Бабак Анвари) [2019, Ужасы, триллер, драма, детектив, WEBRip 1080p] DUB [Невафильм / Netflix] pb.wtf

Раны через торрент pb.wtf

Раздают: 2 [ 0 KB/s ]
Размер: 2.94 GB | Добавлен: 1 год 1 мес. назад | Торрент скачан:336 раз
Скачать  

18-10-2019 09:45 Раны Скачать торрент  

Раны / Wounds
Год выпуска: 2019
Страна: Великобритания
Жанр: Ужасы, триллер, драма, детектив
Продолжительность: 01:35:46
Перевод: Дублированный | Невафильм по заказу Netflix
Субтитры: русские (форс., полные), английские (SDH)

Режиссер: Бабак Анвари

rating

В ролях: Зази Битц, Дакота Джонсон, Арми Хаммер, Брэд Уильям Хенке, Карл Глусман, Керри Кехилл, Кеннет Кинт Брайан, Xena Zeit-Geist, Джим Клок, Ричи Монтгомери и др.

Описание: Молодой бармен после драки в заведении находит потерянный посетителем телефон и зачем-то решает посмотреть, что в нем. С этого момента жизнь мужчины круто меняется не в лучшую сторону: на его теле открываются ужасные раны, повсюду носятся толпы тараканов, он получает страшные фотографии и леденящие душу звонки, и, кажется, что парень оказался в центре какого-то жуткого заговора или чьей-то извращенной игры.

Качество: WEBRip 1080p
Формат: AVI

Видео: MPEG-4 AVC, 1920x1080, 3010 kbps, 24,000 fps
Аудио#1: русский, EAC3, 5.1 ch, 48 kHz, 640 kbps
Аудио#2: английский, EAC3, 5.1 ch, 48 kHz, 768 kbps
скриншот  скриншот  скриншот  скриншот  скриншот  

Общее
Уникальный идентификатор : 247458838292399629918165847743181804220 (0xBA2AD6B2E26FBF2DBA6E260319DED2BC)
Полное имя : G:Torrent2WoundsWEBRip1080p.mkv
Формат : Matroska
Версия формата : Version 4 / Version 2
Размер файла : 2,94 Гбайт
Продолжительность : 1 ч. 35 м.
Режим общего битрейта : Переменный
Общий поток : 4397 Кбит/сек
Название фильма : CMRG
Дата кодирования : UTC 2019-10-18 09:11:03
Программа кодирования : mkvmerge v9.5.0 ('Quiet Fire') 64bit
Библиотека кодирования : libebml v1.3.4 + libmatroska v1.4.5

Видео
Идентификатор : 1
Формат : AVC
Формат/Информация : Advanced Video Codec
Профиль формата : Main@L4
Настройки формата : CABAC / 3 Ref Frames
Параметр CABAC формата : Да
Параметр RefFrames формата : 3 кадра
Идентификатор кодека : V_MPEG4/ISO/AVC
Продолжительность : 1 ч. 35 м.
Вид битрейта : Переменный
Битрейт : 3010 Кбит/сек
Максимальный битрейт : 4515 Кбит/сек
Ширина : 1920 пикселей
Высота : 1080 пикселей
Соотношение сторон : 16:9
Режим частоты кадров : Постоянный
Частота кадров : 24,000 кадра/сек
Цветовое пространство : YUV
Субдискретизация насыщенности : 4:2:0
Битовая глубина : 8 бит
Тип развёртки : Прогрессивная
Бит/(Пиксели*Кадры) : 0.060
Размер потока : 2,00 Гбайт (68%)
Библиотека кодирования : x264 core 148 r2715 7e75228
Настройки программы : cabac=1 / ref=3 / deblock=1:0:0 / analyse=0x1:0x111 / me=umh / subme=10 / psy=1 / psy_rd=1.00:0.00 / mixed_ref=1 / me_range=24 / chroma_me=1 / trellis=2 / 8x8dct=0 / cqm=0 / deadzone=21,11 / fast_pskip=1 / chroma_qp_offset=-2 / threads=8 / lookahead_threads=1 / sliced_threads=0 / nr=0 / decimate=1 / interlaced=0 / bluray_compat=0 / stitchable=1 / constrained_intra=0 / bframes=2 / b_pyramid=0 / b_adapt=2 / b_bias=0 / direct=3 / weightb=1 / open_gop=0 / weightp=2 / keyint=48 / keyint_min=25 / scenecut=0 / intra_refresh=0 / rc_lookahead=48 / rc=2pass / mbtree=1 / bitrate=3010 / ratetol=1.0 / qcomp=0.50 / qpmin=6 / qpmax=51 / qpstep=4 / cplxblur=20.0 / qblur=0.5 / vbv_maxrate=4515 / vbv_bufsize=6020 / nal_hrd=vbr / filler=0 / ip_ratio=1.40 / aq=1:1.00
Язык : English
Default : Да
Forced : Нет

Аудио #1
Идентификатор : 2
Формат : E-AC-3
Формат/Информация : Enhanced Audio Coding 3
Параметр Endianness формата : Big
Идентификатор кодека : A_EAC3
Продолжительность : 1 ч. 35 м.
Вид битрейта : Постоянный
Битрейт : 640 Кбит/сек
Каналы : 6 каналов
Расположение каналов : Front: L C R, Side: L R, LFE
Частота : 48,0 КГц
Частота кадров : 187,500 кадров/сек (256 SPF)
Метод сжатия : С потерями
Размер потока : 438 Мбайт (15%)
Заголовок : rus
Язык : Russian
Default : Да
Forced : Нет

Аудио #2
Идентификатор : 3
Формат : E-AC-3
Формат/Информация : Enhanced Audio Coding 3
Профиль формата : E-AC-3+Atmos / E-AC-3
Параметр Endianness формата : Big
Идентификатор кодека : A_EAC3
Продолжительность : 1 ч. 35 м.
Вид битрейта : Постоянный
Битрейт : 768 Кбит/сек
Каналы : 15 objects / 6 каналов
Расположение каналов : 15 objects / Front: L C R, Side: L R, LFE
Частота : 48,0 КГц
Частота кадров : 187,500 кадров/сек (256 SPF)
Метод сжатия : С потерями
Размер потока : 526 Мбайт (17%)
Заголовок : eng
Язык : English
Default : Нет
Forced : Нет

Текст #1
Идентификатор : 4
Формат : UTF-8
Идентификатор кодека : S_TEXT/UTF8
Идентификатор кодека/Информация : UTF-8 Plain Text
Продолжительность : 1 ч. 27 м.
Битрейт : 4 бит/сек
ElementCount : 50
Размер потока : 2,69 Кбайт (0%)
Заголовок : rusForced
Язык : Russian
Default : Да
Forced : Да

Текст #2
Идентификатор : 5
Формат : UTF-8
Идентификатор кодека : S_TEXT/UTF8
Идентификатор кодека/Информация : UTF-8 Plain Text
Продолжительность : 1 ч. 34 м.
Битрейт : 55 бит/сек
ElementCount : 982
Размер потока : 38,1 Кбайт (0%)
Заголовок : rusFull
Язык : Russian
Default : Нет
Forced : Нет

Текст #3
Идентификатор : 6
Формат : UTF-8
Идентификатор кодека : S_TEXT/UTF8
Идентификатор кодека/Информация : UTF-8 Plain Text
Продолжительность : 1 ч. 34 м.
Битрейт : 41 бит/сек
ElementCount : 1107
Размер потока : 29,0 Кбайт (0%)
Заголовок : engSDH
Язык : English
Default : Нет
Forced : Нет

pb.wtf



Скачать Раны через торрент http://lostpix.com/thumbs/2019-10/17/qlu3lyldsvmti3ilf0zkxh0r7.png Скачать фильм Раны через торрент бесплантно в хорошем качестве Описание: Молодой бармен после драки в заведении находит потерянный посетителем телефон и зачем-то решает посмотреть, что в нем. С этого ... 8.6 10 13
Торрент: Зарегистрирован [2019-10-18 09:45] · скачан: 336 раз
Статус: √ проверено
Размер: 2.94 GB
Как cкачать? Как скачать Раны через торрент | qTorrent

% Раздел Тема Автор DL S | L
Фильмы 2019-2020 [DVDrip, WEB-DLRip, HDrip] (DUB, MVO) [ 1.46 GB ] Раны / Wounds [2019 WEB-DLRip] DUB [Невафильм / Netflix] bober100 Скачать
1 | 0
Фильмы (WEB-DL 720p, 1080p) [ 1.92 GB ] Раны / Wounds [2019 WEBRip 720p] DUB [Невафильм / Netflix] bober100 Скачать
1 | 0

28-11-2019 20:33  

Отключить всю рекламу на сайте

18-10-2019 10:55 Раны Скачать торрент  

странно(оценки первоначальные) трейлир выглядит ничего,
да и Нэтфлекс последнее время не дураки,
вечером посмотрю спс

посмотреть можно, на 6\10 потянет, но концовку слили угарноpb.wtf



    Дорогой пользователь! Огромная просьба, поблагодарите релизера, оцените раздачу и оставьте свои комментарий, если Вы скачали Раны через торрент бесплатно! Внесите свою лепту в развитие PiratBit!
    Комментировать посты могут только пользователи прошедшие не сложную регистрацию
    Показать сообщения:    

    Раны через торрент
    Скачать бесплатно Раны
    Раны скачать торрент
    Раны смотреть онлайн
    Cкачать фильм Раны бесплатно
    Раны скачать торрент в хорошем качестве
    Раны смотреть онлайн бесплатно в хорошем качестве


    Вы не можете начинать темы
    Вы не можете отвечать на сообщения
    Вы не можете редактировать свои сообщения
    Вы не можете удалять свои сообщения
    Вы не можете голосовать в опросах
    Вы не можете прикреплять файлы к сообщениям
    Вы можете скачивать файлы