Ссылка на приватное зеркало всего за 1$. Внимание количество ограничено!!!

OK

1+1

iTunes

мы

OK

1

WEB-DLRip

Джокер

Пифагор

Ведьмак / The Witcher сериал

Лицензия

ПШазам

ОК

Оно 2

iTunes

30
pack

Вам бонус

ВАЖНО

!!Акция!!

Alien_RageХит недели

RePack

Resident Evil 21

ИГРА 18+

pack

RePack

jed

!!Акция!!

Alien_Rage

RePack

fifa19

RePack

Assassins Creed: Odyssey

RePack

NEED FOR SPEED™ PAYBACK

4 сезон

9 сезон

Бесстыжие 9 сезон

Все сериалы

все сериалы на PB.wtf

RePack

FAR CRY 5
  

Дублинские убийства / Dublin Murders / Сезон: 1 / Серии: 1-8 из 8 (Джон Хэйес, Ребекка Гатуард, Сол Дибб) [2019, Драма, криминал, WEB-DL 720p] MVO [TVShows] pb.wtf

Дублинские убийства через торрент pb.wtf

Раздают: 2 [ 451 KB/s ]
Размер: 12.73 GB | Добавлен: 2 мес. 10 д. назад | Торрент скачан:45 раз
Скачать  

18-10-2019 15:15 Дублинские убийства Скачать торрент  

Дублинские убийства / Dublin Murders
Год выпуска: 2019
Страна: Великобритания
Жанр: Драма, криминал
Продолжительность: ~ 00:58:00
Перевод: Профессиональный (многоголосый) | TVShows
Субтитры: отсутствуют

Режиссер: Джон Хэйес, Ребекка Гатуард, Сол Дибб

rating

В ролях: Том Вон-Лолор, Киллиан Скотт, Мо Данфорд, Сара Грин, Конлет Хилл, Йен Кенни, Леа Макнамара, Юджин О'Харе, Эми Маккен, Джонни Холден

Описание: В густом лесу на окраине Дублина находят труп ребёнка. Дело ведут полицейские Роб Райли и Кэсси Мэддокс. В ходе расследования они подозревают, что убийство связано с пропажей троих детей в дублинских лесах больше двадцати лет назад. Жуткие факты, открывающиеся следователям, заставляют их лицом к лицу столкнуться со своими собственными демонами. А взаимоотношения напарников переживают серьёзную проверку.

Качество: WEB-DL 720p
Формат: MKV

Видео: MPEG-4 AVC, ~ 3 800 Кбит/с, 1280x640
Аудио#1: Русский (AC3, 6 ch, 384 Кбит/с)
Аудио#2: английский (EAC3, 6 ch, 640 Кбит/с)
скриншот  скриншот  скриншот  

скриншот  скриншот  скриншот  


Общее
Уникальный идентификатор : 84933820359635769652866620026408441728 (0x3FE5A8A69AC054486A90612151A09780)
Полное имя : D:\Dublin.Murders.S01.720p.TVShows\Dublin.Murders.S01E01.720p.TVShows.mkv
Формат : Matroska
Версия формата : Version 4 / Version 2
Размер файла : 1,97 Гбайт
Продолжительность : 57 м. 57 с.
Режим общего битрейта : Постоянный
Общий поток : 4858 Кбит/сек
Дата кодирования : UTC 2019-10-18 14:12:54
Программа кодирования : mkvmerge v33.1.0 ('Primrose') 64-bit
Библиотека кодирования : libebml v1.3.7 + libmatroska v1.5.0

Видео
Идентификатор : 1
Формат : AVC
Формат/Информация : Advanced Video Codec
Профиль формата : High@L3.1
Параметр CABAC формата : Да
Параметр RefFrames формата : 4 кадра
Идентификатор кодека : V_MPEG4/ISO/AVC
Продолжительность : 57 м. 57 с.
Вид битрейта : Постоянный
Битрейт : 3832 Кбит/сек
Номинальный битрейт : 6000 Кбит/сек
Ширина : 1280 пикселей
Высота : 640 пикселей
Соотношение сторон : 2,000
Режим частоты кадров : Постоянный
Частота кадров : 23,976 (24000/1001) кадра/сек
Цветовое пространство : YUV
Субдискретизация насыщенности : 4:2:0
Битовая глубина : 8 бит
Тип развёртки : Прогрессивная
Бит/(Пиксели*Кадры) : 0.195
Размер потока : 1,55 Гбайт (79%)
Default : Да
Forced : Нет
Цветовой диапазон : Limited
Основные цвета : BT.709
Характеристики трансфера : BT.709
Коэффициенты матрицы : BT.709

Аудио #1
Идентификатор : 2
Формат : AC-3
Формат/Информация : Audio Coding 3
Расширение режима : CM (complete main)
Параметр Endianness формата : Big
Идентификатор кодека : A_AC3
Продолжительность : 57 м. 57 с.
Вид битрейта : Постоянный
Битрейт : 384 Кбит/сек
Каналы : 6 каналов
Расположение каналов : Front: L C R, Side: L R, LFE
Частота : 48,0 КГц
Частота кадров : 31,250 кадров/сек (1536 spf)
Метод сжатия : С потерями
Размер потока : 159 Мбайт (8%)
Заголовок : TVShows
Язык : Russian
Default : Да
Forced : Да

Аудио #2
Идентификатор : 3
Формат : E-AC-3
Формат/Информация : Audio Coding 3
Параметр Endianness формата : Big
Идентификатор кодека : A_EAC3
Продолжительность : 57 м. 57 с.
Вид битрейта : Постоянный
Битрейт : 640 Кбит/сек
Каналы : 6 каналов
Расположение каналов : Front: L C R, Side: L R, LFE
Частота : 48,0 КГц
Частота кадров : 187,500 кадров/сек (256 spf)
Метод сжатия : С потерями
Размер потока : 265 Мбайт (13%)
Заголовок : Original
Язык : English
Default : Нет
Forced : Нет

Внимание! Раздача ведётся путём добавления новых серий; при каждом добавлении создаётся новый торрент.
Чтобы начать докачку новой серии, пользователям необходимо сделать следующее:
1. Остановить скачивание;
2. Удалить старый торрент у себя из клиента (старые серии удалять не надо);
3. Скачать новый торрент и запустить его у себя в клиенте вместо старого, при этом указать клиенту путь в старую папку куда и должно происходить скачивание новых серий. Ваш клиент при этом должен произвести хеширование (проверку) старой папки и будет докачивать только те серии, которых у вас ещё нет. Старые серии при этом не удаляются, а продолжают раздаваться! Eсли вы уже удалили старые серии, то предотвратить повторную закачку старых серий можно, отжав галочку в соответствующих местах при запуске нового торрента.
pb.wtf



Скачать Дублинские убийства через торрент https://d.radikal.ru/d36/1910/d3/c877be414fc4.jpg Скачать фильм Дублинские убийства через торрент бесплантно в хорошем качестве Описание: В густом лесу на окраине Дублина находят труп ребёнка. Дело ведут полицейские Роб Райли и Кэсси Мэддокс. В ходе расследования они ... 6.4 10 7
Торрент: Зарегистрирован [2019-11-08 17:39] · скачан: 45 раз
Статус: √ проверено
Размер: 12.73 GB
Как cкачать? Как скачать Дублинские убийства через торрент | qTorrent

% Раздел Тема Автор DL S | L
Зарубежные сериалы [ 7.55 GB ] Дублинские убийства / Dublin Murders / Сезон: 1 / Серии: 1-8 из 8 [2019 WEB-DLRip] MVO [Novamedia / Amedia] bober100 Скачать
6 | 1
Зарубежные сериалы [ 28.39 GB ] Дублинские убийства / Dublin Murders / Сезон: 1 / Серии: 1-8 из 8 [2019 WEB-DL 1080p] MVO [Novamedia] bober100 Скачать
6 | 2
Зарубежные сериалы [ 5.39 GB ] Дублинские убийства / Dublin Murders / Сезон: 1 / Серии: 1-8 из 8 [2019 WEB-DLRip] [MVO] killermax2013 Скачать
10 | 0
Зарубежные сериалы [ 29.03 GB ] Дублинские убийства / Dublin Murders / Сезон: 1 / Серии: 1-8 из 8 [2019 WEB-DL 1080p] [MVO] killermax2013 Скачать
1 | 0

28-11-2019 20:33  

Отключить всю рекламу на сайте

    Дорогой пользователь! Огромная просьба, поблагодарите релизера, оцените раздачу и оставьте свои комментарий, если Вы скачали Дублинские убийства через торрент бесплатно! Внесите свою лепту в развитие PiratBit!
    Комментировать посты могут только пользователи прошедшие не сложную регистрацию
    Показать сообщения:    

    Дублинские убийства через торрент
    Скачать бесплатно Дублинские убийства
    Дублинские убийства скачать торрент
    Дублинские убийства смотреть онлайн
    Cкачать фильм Дублинские убийства бесплатно
    Дублинские убийства скачать торрент в хорошем качестве
    Дублинские убийства смотреть онлайн бесплатно в хорошем качестве


    Вы не можете начинать темы
    Вы не можете отвечать на сообщения
    Вы не можете редактировать свои сообщения
    Вы не можете удалять свои сообщения
    Вы не можете голосовать в опросах
    Вы не можете прикреплять файлы к сообщениям
    Вы можете скачивать файлы