Ссылка на приватное зеркало нашего сайта всего за 1$. Внимание количество ограничено!!!

2 сезон

iTunes

1 сезон

1

iTunes

iTunes

iTunes

1 сезон

RePack

30

ИГРА 18+

pack

ВАЖНО

!!Акция!!

Alien_RageХит недели

RePack

MK11
pack

Забери бонус

RePack

jed

!!Акция!!

Alien_Rage

RePack

fifa19

RePack

Assassins Creed: Odyssey

RePack

NEED FOR SPEED™ PAYBACK

4 сезон

9 сезон

Бесстыжие 9 сезон

Все сериалы

все сериалы на PB.wtf

RePack

FAR CRY 5
  

Смотрящая вдаль / Сезон: 1 / Серии: 1-12 из 12 (Владимир Мельниченко) [2019, Детектив, мистика, WEB-DL 720p] pb.wtf

Смотрящая вдаль через торрент pb.wtf

Размер: 8.57 GB | Добавлен: 1 год назад | Торрент скачан:63 раза
Скачать  

18-10-2019 18:33 Смотрящая вдаль Скачать торрент  

Смотрящая вдаль
Год выпуска: 2019
Страна: Россия
Жанр: Детектив, мистика
Продолжительность: ~ 00:51:00
Перевод: Не требуется
Субтитры: отсутствуют

Режиссер: Владимир Мельниченко

В ролях: Елена Радевич, Антон Батырев, Кирилл Жандаров, Сергей Деревянко, Светлана Зельбет, Константин Октябрьский, Сергей Деньга

Описание: У девушки по имени Анна совсем внезапно обнаруживается дар, позволяющий ей, даже помимо воли, предвидеть свое и чужое будущее. Тут в жизни Ани случается непредвиденное горе и она узнает об аресте своего любимого Саши прямо перед тем, как должно состояться их бракосочетание. Причем его, совершенно честного парня, хотят обвинить в перевозке наркотических веществ. Саше, планирующему хоть как-то доказать собственную непричастность к контрабанде, все-таки удается сбежать. Но теперь Анна обеспокоена еще больше, так как в видениях ей была четко показан гибель Александра, а убийцу она, как назло, разглядеть так и не смогла. Понимая, что время довольно-таки ограничено, Аня решила привлечь к делу своего старого приятеля Алексея, который служит в одном из отделов полиции.

Качество: WEB-DL 720p
Формат: MKV

Видео: MPEG-4 AVC, ~ 1749 Кбит/с, 1280x720, 25 кадр/с
Аудио: 48 kHz, AC3, 2/0 (L,R) ch, 192.00 kbps
скриншот  скриншот  скриншот  скриншот  скриншот  

Общее
Уникальный идентификатор : 231581837033835868019232695194786972683 (0xAE390A19862BC86BAC7E6C3B8823C40B)
Полное имя : C:\Смотрящая вдаль.(2019).WEB-DL (720p).by.Nicodem.Files-x\01.Смотрящая вдаль.(2019).WEB-DL (720p).by.Nicodem.Files-x.mkv
Формат : Matroska
Версия формата : Version 4
Размер файла : 730 Мбайт
Продолжительность : 51 м. 30 с.
Режим общего битрейта : Переменный
Общий поток : 1981 Кбит/сек
Программа кодирования : Lavf56.36.100
Библиотека кодирования : Lavf56.36.100

Видео
Идентификатор : 1
Формат : AVC
Формат/Информация : Advanced Video Codec
Профиль формата : High@L3.1
Настройки формата : CABAC / 2 Ref Frames
Параметр CABAC формата : Да
Параметр RefFrames формата : 2 кадра
Идентификатор кодека : V_MPEG4/ISO/AVC
Продолжительность : 51 м. 30 с.
Вид битрейта : Переменный
Битрейт : 1749 Кбит/сек
Максимальный битрейт : 1800 Кбит/сек
Ширина : 1280 пикселей
Высота : 720 пикселей
Соотношение сторон : 16:9
Режим частоты кадров : Постоянный
Частота кадров : 25,000 кадров/сек
Цветовое пространство : YUV
Субдискретизация насыщенности : 4:2:0
Битовая глубина : 8 бит
Тип развёртки : Прогрессивная
Бит/(Пиксели*Кадры) : 0.076
Размер потока : 644 Мбайт (88%)
Default : Да
Forced : Нет

Аудио
Идентификатор : 2
Формат : AC-3
Формат/Информация : Audio Coding 3
Коммерческое название : Dolby Digital
Идентификатор кодека : A_AC3
Продолжительность : 51 м. 30 с.
Вид битрейта : Постоянный
Битрейт : 192 Кбит/сек
Каналы : 2 канала
ChannelLayout : L R
Частота : 44,1 КГц
Частота кадров : 28,711 кадров/сек (1536 SPF)
Битовая глубина : 16 бит
Метод сжатия : С потерями
Задержка видео : -80 мс.
Размер потока : 70,7 Мбайт (10%)
Язык : unknown
ServiceKind/String : Complete Main
Default : Да
Forced : Нет

pb.wtf



Скачать Смотрящая вдаль через торрент https://i106.fastpic.ru/big/2019/1008/c0/4e12bd1c997bcb0e1b091207bb7efec0.jpg Скачать фильм Смотрящая вдаль через торрент бесплантно в хорошем качестве Описание: У девушки по имени Анна совсем внезапно обнаруживается дар, позволяющий ей, даже помимо воли, предвидеть свое и чужое будущее. ... 10 10 4
Торрент: Зарегистрирован [2019-10-18 18:33] · скачан: 63 раз
Статус: √ проверено
Размер: 8.57 GB
Как cкачать? Как скачать Смотрящая вдаль через торрент | qTorrent

% Раздел Тема Автор DL S | L
Наши сериалы [ 19.88 GB ] Смотрящая вдаль / Сезон: 1 / Серии: 1-12 из 12 [2019 WEB-DL 1080p] bober100 Скачать
1 | 0
Наши сериалы [ 7.77 GB ] Смотрящая вдаль / Сезон: 1 / Серии: 1-12 из 12 [2019 WEB-DLRip-AVC] bober100 Скачать
1 | 0

28-11-2019 20:33  

Отключить всю рекламу на сайте

    Дорогой пользователь! Огромная просьба, поблагодарите релизера, оцените раздачу и оставьте свои комментарий, если Вы скачали Смотрящая вдаль через торрент бесплатно! Внесите свою лепту в развитие PiratBit!
    Комментировать посты могут только пользователи прошедшие не сложную регистрацию
    Показать сообщения:    

    Смотрящая вдаль через торрент
    Скачать бесплатно Смотрящая вдаль
    Смотрящая вдаль скачать торрент
    Смотрящая вдаль смотреть онлайн
    Cкачать фильм Смотрящая вдаль бесплатно
    Смотрящая вдаль скачать торрент в хорошем качестве
    Смотрящая вдаль смотреть онлайн бесплатно в хорошем качестве


    Вы не можете начинать темы
    Вы не можете отвечать на сообщения
    Вы не можете редактировать свои сообщения
    Вы не можете удалять свои сообщения
    Вы не можете голосовать в опросах
    Вы не можете прикреплять файлы к сообщениям
    Вы можете скачивать файлы