Всегда рабочее зеркало без VPN и Proxy просто перед .vidak.icu напиши любое слово или цифру, Пример http://o1t7.vidak.icu

Лицензия

MVO

1 сезон

1

1 сезон

iTunes

1 сезон

13

1 сезон

Deluxe

pack

Рекомендуем

Repack

30

ВАЖНО

RePack

MK11

RePack

jed

RePack

fifa19

RePack

RDR2

RePack

NEED FOR SPEED™ PAYBACK

Кинопоиск HD

6 сезон

 Острые козырьки 6 сезон

Все сериалы

все сериалы на PB.wtf

RePack

FAR CRY 5
  
Magnet ссылка

Защитник / Concussion (Питер Ландесман) [2015, драма, биография, спорт, UHD BDRemux 2160p] DUB [Лицензия] + MVO + DVO pb.wtf

Защитник через торрент pb.wtf

Размер: 48.15 GB | Добавлен: 2 года 9 мес. назад | Торрент скачан:47 раз
Смотреть онлайн Защитник | Скачать    Ребята, помогите собрать деньги на оплату серверов!!!

19-10-2019 04:14 Защитник Скачать торрент  

Защитник / Concussion««Even Legends Need a Hero»»

Год выпуска: 2015
Страна: Великобритания, Австралия, США
Жанр: драма, биография, спорт
Продолжительность: 02:02:50
Перевод: Профессиональный (дублированный), Любительский многоголосый, Любительский двухголосый
Субтитры: русские (forced, full), английские (full, SDH, Commentary)
Режиссер: Питер Ландесман

В ролях:

Уилл Смит (Dr. Bennet Omalu), Алек Болдуин (Dr. Julian Bailes), Альберт Брукс (Dr. Cyril Wecht), Гугу Эмбата-Ро (Prema Mutiso), Дэвид Морс (Mike Webster), Арлисс Ховард (Dr. Joseph Maroon), Майк О’Мэлли (Daniel Sullivan), Эдди Марсан (Dr. Steve DeKosky), Хилл Харпер (Christopher Jones), Адевале Акинойе-Агбаже (Dave Duerson), Стивен Мойер (Dr. Ron Hamilton), Ричард Т. Джонс (Andre Waters)
Описание:
В Америке один за одним неожиданно и загадочно умирают знаменитые спортсмены. Молодой, но талантливый патологоанатом хочет докопаться до истины, однако не всем нужна правда.
Рейтинг:

MPAA: PG-13 - Детям до 13 лет просмотр не желателен
Качество: UHD BDRemux 2160p
Формат: MKV
Видео: MPEG-H HEVC Video / 50142 kbps / 3840x2160 / 23.976 fps / 16:9 / Main 10 @ Level 5.1 @ High / 4:2:0 / 10 bits / HDR10 / BT.2020 /
Аудио 1: Russian AC3 / 5.1 / 48 kHz / 640 kbps / 16-bit |Dub, Blu-Ray|
Аудио 2: Russian AC3 / 2.0 / 48 kHz / 192 kbps / 16-bit |MVO, ColdFilm|
Аудио 3: Russian AC3 / 2.0 / 48 kHz / 192 kbps / 16-bit |DVO, Паровоз Продакшн|
Аудио 4: English Dolby Atmos/TrueHD Audio / 7.1-Atmos / 48 kHz / 4688 kbps / 24-bit |original|
Аудио 5: English AC3 Core: 5.1 / 48 kHz / 640 kbps |original|
Аудио 6: English AC3 / 2.0 / 48 kHz / 192 kbps / 16-bit |Commentary by director Peter Landesman|
Навигация по главам: есть

Общее
Уникальный идентификатор : 267527178526122681337318986907385691715 (0xC943DC4392CD59DDD0E8ED4D72FD7E43)
Полное имя : H:\UHD\Защитник.2015.UHD.Blu-Ray.Remux.2160p.mkv
Формат : Matroska
Версия формата : Version 4
Размер файла : 48,2 Гбайт
Продолжительность : 2 ч. 2 м.
Режим общего битрейта : Переменный
Общий поток : 56,1 Мбит/сек
Дата кодирования : UTC 2019-10-16 18:12:29
Программа кодирования : mkvmerge v38.0.0 ('The Silent Type') 64-bit
Библиотека кодирования : libebml v1.3.9 + libmatroska v1.5.2
Attachments : poster.jpg

Видео
Идентификатор : 1
Формат : HEVC
Формат/Информация : High Efficiency Video Coding
Профиль формата : Main [email protected]@High
HDR_Format/String : SMPTE ST 2086, HDR10 compatible
Идентификатор кодека : V_MPEGH/ISO/HEVC
Продолжительность : 2 ч. 2 м.
Битрейт : 50,1 Мбит/сек
Ширина : 3840 пикселей
Высота : 2160 пикселей
Соотношение сторон : 16:9
Режим частоты кадров : Постоянный
Частота кадров : 23,976 (24000/1001) кадра/сек
Цветовое пространство : YUV
Субдискретизация насыщенности : 4:2:0 (Type 2)
Битовая глубина : 10 бит
Бит/(Пиксели*Кадры) : 0.252
Размер потока : 43,0 Гбайт (89%)
Default : Да
Forced : Нет
Цветовой диапазон : Limited
Основные цвета : BT.2020
Характеристики трансфера : PQ
Коэффициенты матрицы : BT.2020 non-constant
MasteringDisplay_ColorPrimaries : Display P3
MasteringDisplay_Luminance : min: 0.0050 cd/m2, max: 4000 cd/m2
MaxCLL : 1115 cd/m2
MaxFALL : 344 cd/m2

Аудио #1
Идентификатор : 2
Формат : AC-3
Формат/Информация : Audio Coding 3
Коммерческое название : Dolby Digital
Идентификатор кодека : A_AC3
Продолжительность : 2 ч. 2 м.
Вид битрейта : Постоянный
Битрейт : 640 Кбит/сек
Каналы : 6 каналов
ChannelLayout : L R C LFE Ls Rs
Частота : 48,0 КГц
Частота кадров : 31,250 кадров/сек (1536 SPF)
Метод сжатия : С потерями
Размер потока : 562 Мбайт (1%)
Заголовок : Dub, Blu-Ray
Язык : Russian
ServiceKind/String : Complete Main
Default : Да
Forced : Нет

Аудио #2
Идентификатор : 3
Формат : AC-3
Формат/Информация : Audio Coding 3
Коммерческое название : Dolby Digital
Идентификатор кодека : A_AC3
Продолжительность : 2 ч. 2 м.
Вид битрейта : Постоянный
Битрейт : 192 Кбит/сек
Каналы : 2 канала
ChannelLayout : L R
Частота : 48,0 КГц
Частота кадров : 31,250 кадров/сек (1536 SPF)
Метод сжатия : С потерями
Размер потока : 169 Мбайт (0%)
Заголовок : MVO, ColdFilm
Язык : Russian
ServiceKind/String : Complete Main
Default : Нет
Forced : Нет

Аудио #3
Идентификатор : 4
Формат : AC-3
Формат/Информация : Audio Coding 3
Коммерческое название : Dolby Digital
Идентификатор кодека : A_AC3
Продолжительность : 2 ч. 2 м.
Вид битрейта : Постоянный
Битрейт : 192 Кбит/сек
Каналы : 2 канала
ChannelLayout : L R
Частота : 48,0 КГц
Частота кадров : 31,250 кадров/сек (1536 SPF)
Метод сжатия : С потерями
Размер потока : 169 Мбайт (0%)
Заголовок : DVO, Паровоз Продакшн
Язык : Russian
ServiceKind/String : Complete Main
Default : Нет
Forced : Нет

Аудио #4
Идентификатор : 5
Формат : MLP FBA 16-ch
Формат/Информация : Meridian Lossless Packing FBA with 16-channel presentation
Коммерческое название : Dolby TrueHD with Dolby Atmos
Идентификатор кодека : A_TRUEHD
Продолжительность : 2 ч. 2 м.
Вид битрейта : Переменный
Битрейт : 4048 Кбит/сек
Максимальный битрейт : 7197 Кбит/сек
Каналы : 8 каналов
ChannelLayout : L R C LFE Ls Rs Lb Rb
Частота : 48,0 КГц
Частота кадров : 1200,000 кадров/сек (40 SPF)
Метод сжатия : Без потерь
Размер потока : 3,47 Гбайт (7%)
Язык : English
Default : Нет
Forced : Нет
NumberOfDynamicObjects : 11
BedChannelCount/String : 1 канал
BedChannelConfiguration : LFE

Аудио #5
Идентификатор : 6
Формат : AC-3
Формат/Информация : Audio Coding 3
Коммерческое название : Dolby Digital
Идентификатор кодека : A_AC3
Продолжительность : 2 ч. 2 м.
Вид битрейта : Постоянный
Битрейт : 640 Кбит/сек
Каналы : 6 каналов
ChannelLayout : L R C LFE Ls Rs
Частота : 48,0 КГц
Частота кадров : 31,250 кадров/сек (1536 SPF)
Метод сжатия : С потерями
Размер потока : 562 Мбайт (1%)
Язык : English
ServiceKind/String : Complete Main
Default : Нет
Forced : Нет

Аудио #6
Идентификатор : 7
Формат : AC-3
Формат/Информация : Audio Coding 3
Коммерческое название : Dolby Digital
Идентификатор кодека : A_AC3
Продолжительность : 2 ч. 2 м.
Вид битрейта : Постоянный
Битрейт : 192 Кбит/сек
Каналы : 2 канала
ChannelLayout : L R
Частота : 48,0 КГц
Частота кадров : 31,250 кадров/сек (1536 SPF)
Метод сжатия : С потерями
Размер потока : 169 Мбайт (0%)
Заголовок : Commentary by director Peter Landesman
Язык : English
ServiceKind/String : Complete Main
Default : Нет
Forced : Нет

Текст #1
Идентификатор : 8
Формат : UTF-8
Идентификатор кодека : S_TEXT/UTF8
Идентификатор кодека/Информация : UTF-8 Plain Text
Продолжительность : 1 ч. 56 м.
Битрейт : 1 бит/сек
ElementCount : 20
Размер потока : 1,56 Кбайт (0%)
Заголовок : forced
Язык : Russian
Default : Да
Forced : Нет

Текст #2
Идентификатор : 9
Формат : UTF-8
Идентификатор кодека : S_TEXT/UTF8
Идентификатор кодека/Информация : UTF-8 Plain Text
Продолжительность : 1 ч. 57 м.
Битрейт : 96 бит/сек
ElementCount : 1383
Размер потока : 83,3 Кбайт (0%)
Заголовок : full
Язык : Russian
Default : Нет
Forced : Нет

Текст #3
Идентификатор : 10
Формат : UTF-8
Идентификатор кодека : S_TEXT/UTF8
Идентификатор кодека/Информация : UTF-8 Plain Text
Продолжительность : 1 ч. 57 м.
Битрейт : 56 бит/сек
ElementCount : 1466
Размер потока : 48,8 Кбайт (0%)
Заголовок : full
Язык : English
Default : Нет
Forced : Нет

Текст #4
Идентификатор : 11
Формат : UTF-8
Идентификатор кодека : S_TEXT/UTF8
Идентификатор кодека/Информация : UTF-8 Plain Text
Продолжительность : 2 ч. 0 м.
Битрейт : 62 бит/сек
ElementCount : 1713
Размер потока : 55,6 Кбайт (0%)
Заголовок : SDH
Язык : English
Default : Нет
Forced : Нет

Текст #5
Идентификатор : 12
Формат : UTF-8
Идентификатор кодека : S_TEXT/UTF8
Идентификатор кодека/Информация : UTF-8 Plain Text
Продолжительность : 1 ч. 57 м.
Битрейт : 106 бит/сек
ElementCount : 1957
Размер потока : 91,7 Кбайт (0%)
Заголовок : Commentary by director Peter Landesman
Язык : English
Default : Нет
Forced : Нет

Меню
00:00:00.000 : en:Chapter 1
00:07:26.696 : en:Chapter 2
00:14:41.631 : en:Chapter 3
00:21:48.098 : en:Chapter 4
00:29:36.566 : en:Chapter 5
00:37:42.927 : en:Chapter 6
00:43:44.539 : en:Chapter 7
00:51:30.713 : en:Chapter 8
00:59:35.447 : en:Chapter 9
01:06:58.264 : en:Chapter 10
01:13:07.508 : en:Chapter 11
01:22:18.308 : en:Chapter 12
01:30:34.721 : en:Chapter 13
01:38:15.098 : en:Chapter 14
01:46:46.942 : en:Chapter 15
01:53:34.808 : en:Chapter 16
pb.wtf



Скачать Защитник через торрент https://c.radikal.ru/c32/1910/eb/1a570f555061.png Скачать, смотреть онлайн Защитник бесплантно в хорошем качестве Описание: В Америке один за одним неожиданно и загадочно умирают знаменитые спортсмены. Молодой, но талантливый патологоанатом хочет ... 10 10 3
Info! Серебряная раздача, засчитывается только 50% скачанного.
Торрент: Зарегистрирован [2019-10-19 04:14] · скачан: 47 раз
Статус: √ проверено
Размер: 48.15 GB
Как cкачать? Как скачать Защитник через торрент | UTorrent

28-11-2019 20:33  

Отключить вcю реклaмy на сайте

    Дорогой пользователь! Огромная просьба, поблагодарите релизера, оцените раздачу и оставьте свои комментарий, если Вы скачали Защитник через торрент бесплатно!
    Комментировать посты могут только пользователи прошедшие не сложную регистрацию
    Показать сообщения:    

    Защитник через торрент
    Скачать бесплатно Защитник
    Защитник скачать торрент
    Защитник смотреть онлайн
    Cкачать фильм Защитник бесплатно
    Защитник скачать торрент в хорошем качестве
    Защитник смотреть онлайн бесплатно в хорошем качестве


    Вы не можете начинать темы
    Вы не можете отвечать на сообщения
    Вы не можете редактировать свои сообщения
    Вы не можете удалять свои сообщения
    Вы не можете голосовать в опросах
    Вы не можете прикреплять файлы к сообщениям
    Вы можете скачивать файлы