Доктор Стрэндж

Лицензия

Добыча

MVO

Дом дракона

1 сезон

Тор

Лицензия

Мэверик

Лицензия

Там, где раки поют

MVO

Властелин колец

1 сезон

Ultimate

pack

Рекомендуем

30

Repack

ВАЖНО

ВАЖНО

Ghostwire

RePack

jed

RePack

nioh2

RePack

RDR2

RePack

NEED FOR SPEED™ PAYBACK

RePack

скачать торрент

Кинопоиск HD

Острые козырьки 6 сезон

6 сезон

FAR CRY 6

RePack

скачать торрент

Лицензия

скачать торрент

MVO

1

1 сезон

скачать торрент

1 сезон

скачать торрент

Лицензия

  

Салют-7 (Клим Шипенко) [2017, Драма, приключения, триллер, UHD BDRip 1080p]

Смотреть онлайн | Скачать   

19-10-2019 07:21 Салют-7 Скачать торрент  

Салют-7
Год выпуска: 2017
Страна: Россия
Жанр: Драма, приключения, триллер
Продолжительность: 01:58:25
Субтитры: нет

Режиссер: Клим Шипенко



В ролях: Владимир Вдовиченков, Павел Деревянко, Александр Самойленко, Виталий Хаев, Оксана Фандера, Любовь Аксенова, Полина Руденко, Александра Серебрякова, Мария Миронова, Наталья Кудряшова

Описание: Космическая станция «Салют-7», находящаяся на орбите в беспилотном режиме, неожиданно перестаёт отвечать на сигналы центра управления полётом. Принято решение об отправке на орбиту спасательной экспедиции. Космический экипаж должен найти «мёртвую» станцию и впервые в мире провести стыковку с 20-тонной глыбой неуправляемого железа.

Космонавты понимают, что шансов вернуться на Землю у них немного. Но этот рискованный путь — единственно возможный. Они должны не только проникнуть на «Салют-7», но и оживить его. Смогут ли два человека предотвратить неминуемую катастрофу и спасти планету от падения станции? Спасательная экспедиция превращается в опасное испытание.

Доп. информация: Рип немецкого 4K издания. Текст на немецком в начале и конце фильма, а также название фильма заменены на русские из французского издания. Убраны немецкие заставки в начале, которые отсутствуют во французском издании, а также немецкие титры после основных титров.

Почему немецкое, а не французское издание в основе? Мне больше понравился уровень черного и контраст, а также отсутствие бандингов на темных местах

Качество: UHD BDRip 1080p
Формат: MKV
Видео кодек: H.264
Аудио кодек: AC3
Видео: 1920х804, 10.0 Mbps, 24.000 fps, 0.270 bit/pixel
Аудио#1: AC3, 6 ch, 640 kbps | Russian
Релиз от: kisa1980

скриншот  ,скриншот  ,скриншот  ,скриншот  ,

Общее
Уникальный идентификатор : 29647534034915632039487083009217360433 (0x164DE84894E83FAA43E12C6B6AC37231)
Полное имя : I:\КИНО HEVC\Салют-7 (2017) Extended UHD BDRip 1080p.mkv
Формат : Matroska
Версия формата : Version 4
Размер файла : 8,80 Гбайт
Продолжительность : 1 ч. 58 м.
Общий поток : 10,6 Мбит/сек
Название фильма : Салют-7 (2017)
Дата кодирования : UTC 2019-03-12 18:27:20
Программа кодирования : mkvmerge v31.0.0 ('Dolores In A Shoestand') 64-bit
Библиотека кодирования : libebml v1.3.6 + libmatroska v1.4.9
Обложка : Yes
Attachments : cover.jpg / x264.log

Видео
Идентификатор : 1
Формат : AVC
Формат/Информация : Advanced Video Codec
Профиль формата : [email protected]
Настройки формата : CABAC / 5 Ref Frames
Параметр CABAC формата : Да
Параметр RefFrames формата : 5 кадров
Идентификатор кодека : V_MPEG4/ISO/AVC
Продолжительность : 1 ч. 58 м.
Битрейт : 10000 Кбит/сек
Ширина : 1920 пикселей
Высота : 804 пикселя
Соотношение сторон : 2,40:1
Режим частоты кадров : Постоянный
Частота кадров : 24,000 кадра/сек
Цветовое пространство : YUV
Субдискретизация насыщенности : 4:2:0
Битовая глубина : 8 бит
Тип развёртки : Прогрессивная
Бит/(Пиксели*Кадры) : 0.270
Размер потока : 8,26 Гбайт (94%)
Библиотека кодирования : x264 core 157 r2935+3 b68b5bf
Настройки программы : cabac=1 / ref=5 / deblock=1:-3:-3 / analyse=0x3:0x133 / me=umh / subme=11 / psy=1 / psy_rd=1.00:0.00 / mixed_ref=1 / me_range=32 / chroma_me=1 / trellis=2 / 8x8dct=1 / cqm=0 / deadzone=21,11 / fast_pskip=0 / chroma_qp_offset=-2 / threads=12 / lookahead_threads=3 / sliced_threads=0 / nr=0 / decimate=0 / interlaced=0 / bluray_compat=0 / constrained_intra=0 / bframes=14 / b_pyramid=2 / b_adapt=2 / b_bias=0 / direct=3 / weightb=1 / open_gop=0 / weightp=2 / keyint=240 / keyint_min=24 / scenecut=40 / intra_refresh=0 / rc=2pass / mbtree=0 / bitrate=10000 / ratetol=1.0 / qcomp=0.60 / qpmin=0 / qpmax=69 / qpstep=4 / cplxblur=20.0 / qblur=0.5 / ip_ratio=1.40 / pb_ratio=1.30 / aq=3:0.80
Язык : Russian
Default : Да
Forced : Нет
Цветовой диапазон : Limited
Основные цвета : BT.709
Характеристики трансфера : BT.709
Коэффициенты матрицы : BT.709

Аудио
Идентификатор : 2
Формат : AC-3
Формат/Информация : Audio Coding 3
Коммерческое название : Dolby Digital
Идентификатор кодека : A_AC3
Продолжительность : 1 ч. 58 м.
Вид битрейта : Постоянный
Битрейт : 640 Кбит/сек
Каналы : 6 каналов
Channel layout : L R C LFE Ls Rs
Частота : 48,0 КГц
Частота кадров : 31,250 кадров/сек (1536 SPF)
Битовая глубина : 16 бит
Метод сжатия : С потерями
Размер потока : 542 Мбайт (6%)
Язык : Russian
ServiceKind/String : Complete Main
Default : Да
Forced : Нет

Меню
00:00:00.000 : ru:Глава 1
00:11:20.583 : ru:Глава 2
00:15:52.458 : ru:Глава 3
00:28:29.416 : ru:Глава 4
00:41:29.666 : ru:Глава 5
00:54:12.291 : ru:Глава 6
01:07:38.416 : ru:Глава 7
01:20:30.791 : ru:Глава 8
01:33:03.250 : ru:Глава 9
01:45:39.666 : ru:Глава 10
01:48:40.708 : ru:Глава 11
01:53:14.166 : ru:Глава 12




28-11-2019 20:33  


Отключить вcю реклaмy на сайте, в т.ч. и в плеере онлайн просмотра!

20-10-2019 19:03 Салют-7 Скачать торрент  

Спасибо.



    Дорогой пользователь! Огромная просьба, поблагодарите релизера, оцените раздачу и оставьте свои комментарий, если Вы скачали Салют-7 через торрент бесплатно!!
    Комментировать посты могут только пользователи прошедшие не сложную регистрацию
    Показать сообщения:    


    Салют-7 через торрент
    Скачать бесплатно Салют-7
    Салют-7 скачать торрент
    Салют-7 смотреть онлайн
    Cкачать фильм Салют-7 бесплатно
    Салют-7 скачать торрент в хорошем качестве
    Салют-7 смотреть онлайн бесплатно в хорошем качестве
    Вы не можете начинать темы
    Вы не можете отвечать на сообщения
    Вы не можете редактировать свои сообщения
    Вы не можете удалять свои сообщения
    Вы не можете голосовать в опросах
    Вы не можете прикреплять файлы к сообщениям
    Вы можете скачивать файлы