Ссылка на приватное зеркало нашего сайта всего за 1$. Внимание количество ограничено!!!

2 сезон

iTunes

1 сезон

1

iTunes

iTunes

iTunes

1 сезон

RePack

30

ИГРА 18+

pack

ВАЖНО

!!Акция!!

Alien_RageХит недели

RePack

MK11
pack

Забери бонус

RePack

jed

!!Акция!!

Alien_Rage

RePack

fifa19

RePack

Assassins Creed: Odyssey

RePack

NEED FOR SPEED™ PAYBACK

4 сезон

9 сезон

Бесстыжие 9 сезон

Все сериалы

все сериалы на PB.wtf

RePack

FAR CRY 5
  

Московские тайны: Либерея / Сезон: 6 / Серии: 1-2 из 2 (Артем Насыбулин) [2019, Детектив, криминал, SATRip] pb.wtf

Московские тайны: Либерея через торрент pb.wtf

Размер: 1.17 GB | Добавлен: 1 год назад | Торрент скачан:40 раз
Скачать  

19-10-2019 10:46 Московские тайны: Либерея Скачать торрент  

Московские тайны: Либерея
Год выпуска: 2019
Страна: Россия
Жанр: Детектив, криминал
Продолжительность: ~ 00:44:00
Субтитры: отсутствуют

Режиссер: Артем Насыбулин



В ролях: Александра Богданова, Евгений Пронин, Владислав Ветров, Екатерина Семёнова, Александр Робак, Алексей Лонгин, Елена Муравьёва, Дмитрий Лавров, Александр Загоскин

Описание: Охранник антикварного магазина на Никольской улице упал с лестницы в том же доме и умер. В руке покойного нашли лист из древнего манускрипта на греческом языке. Настя Вяземская подозревает, что рукопись могла храниться в Либерее, утерянной библиотеке Ивана Грозного. Неужели покойный ее нашел? И была ли его смерть случайной?

Качество: SATRip
Формат: AVI

Видео: XviD, ~ 1650 Кбит/с, 720x400
Аудио: MP3, 2 ch, 192 Кбит/с
скриншот  скриншот  скриншот  скриншот  

Общее
Полное имя : C:\Moskovskie.tayni.libereya.2019.XviD.SATRip.25Kuzmich\Moskovskie.tayni.libereya.(01.seriya.iz.02).XviD.SATRip.25Kuzmich.avi
Формат : AVI
Формат/Информация : Audio Video Interleave
Размер файла : 600 Мбайт
Продолжительность : 43 м. 36 с.
Общий поток : 1923 Кбит/сек
Программа кодирования : VirtualDubMod 1.5.10.3 | www.virtualdub-fr.org || (build 2550/release)
Библиотека кодирования : VirtualDubMod build 2550/release

Видео
Идентификатор : 0
Формат : MPEG-4 Visual
Профиль формата : Advanced Simple@L5
Настройки формата : BVOP1
Параметр BVOP формата : 1
Параметр QPel формата : Нет
Параметр GMC формата : Без точки перехода
Параметр матрицы формата : Default (MPEG)
Идентификатор кодека : XVID
Идентификатор кодека/Подсказка : XviD
Продолжительность : 43 м. 36 с.
Битрейт : 1646 Кбит/сек
Ширина : 720 пикселей
Высота : 400 пикселей
Соотношение сторон : 16:9
Частота кадров : 25,000 кадров/сек
Цветовое пространство : YUV
Субдискретизация насыщенности : 4:2:0
Битовая глубина : 8 бит
Тип развёртки : Прогрессивная
Метод сжатия : С потерями
Бит/(Пиксели*Кадры) : 0.229
Размер потока : 513 Мбайт (86%)
Библиотека кодирования : XviD 73

Аудио
Идентификатор : 1
Формат : MPEG Audio
Версия формата : Version 1
Профиль формата : Layer 3
Настройки формата : Joint stereo / MS Stereo
Идентификатор кодека : 55
Идентификатор кодека/Подсказка : MP3
Продолжительность : 43 м. 36 с.
Вид битрейта : Постоянный
Битрейт : 192 Кбит/сек
Каналы : 2 канала
Частота : 48,0 КГц
Частота кадров : 41,667 кадра/сек (1152 SPF)
Метод сжатия : С потерями
Размер потока : 59,9 Мбайт (10%)
Выравнивание : Соединение по промежуткам
Библиотека кодирования : LAME3.99r
Настройки программы : -m j -V 4 -q 2 -lowpass 18.6 -b 192

pb.wtf



Скачать Московские тайны: Либерея через торрент http://i86.fastpic.ru/big/2019/1018/2e/7675eb40254a3d9d9e6c8bd7d744132e.jpg Скачать фильм Московские тайны: Либерея через торрент бесплантно в хорошем качестве Описание: Охранник антикварного магазина на Никольской улице упал с лестницы в том же доме и умер. В руке покойного нашли лист из древнего ... 7.7 10 3
Торрент: Зарегистрирован [2019-10-19 10:46] · скачан: 40 раз
Статус: √ проверено
Размер: 1.17 GB
Как cкачать? Как скачать Московские тайны: Либерея через торрент | qTorrent

% Раздел Тема Автор DL S | L
Наши сериалы [ 1.04 GB ] Московские тайны. Либерея / Сезон-6 / Серии: 1-2 из 2 [2019 SATRip-AVC] aleksan55 Скачать
2 | 0

28-11-2019 20:33  

Отключить всю рекламу на сайте

    Дорогой пользователь! Огромная просьба, поблагодарите релизера, оцените раздачу и оставьте свои комментарий, если Вы скачали Московские тайны: Либерея через торрент бесплатно! Внесите свою лепту в развитие PiratBit!
    Комментировать посты могут только пользователи прошедшие не сложную регистрацию
    Показать сообщения:    

    Московские тайны: Либерея через торрент
    Скачать бесплатно Московские тайны: Либерея
    Московские тайны: Либерея скачать торрент
    Московские тайны: Либерея смотреть онлайн
    Cкачать фильм Московские тайны: Либерея бесплатно
    Московские тайны: Либерея скачать торрент в хорошем качестве
    Московские тайны: Либерея смотреть онлайн бесплатно в хорошем качестве


    Вы не можете начинать темы
    Вы не можете отвечать на сообщения
    Вы не можете редактировать свои сообщения
    Вы не можете удалять свои сообщения
    Вы не можете голосовать в опросах
    Вы не можете прикреплять файлы к сообщениям
    Вы можете скачивать файлы