Ссылка на приватное зеркало нашего сайта всего за 1$. Внимание количество ограничено!!!

2 сезон

iTunes

1 сезон

1

2 сезон

2 сезон

iTunes

1 сезон

RePack

30

Ultimate

ВАЖНО

ИГРА 18+

pack

RePack

MK11
pack

Забери бонус

RePack

jed

!!Акция!!

Alien_Rage

RePack

fifa19

RePack

Assassins Creed: Odyssey

RePack

NEED FOR SPEED™ PAYBACK

4 сезон

9 сезон

Бесстыжие 9 сезон

Все сериалы

все сериалы на PB.wtf

RePack

FAR CRY 5
  

Трое из ада / Three from Hell (Роб Зомби / Rob Zombie) [2019, ужасы, криминал, триллер, BDRemux 1080p] [DVO] (LakeFilms) pb.wtf

Трое из ада через торрент pb.wtf

Размер: 30.5 GB | Добавлен: 1 год 1 мес. назад | Торрент скачан:22 раза
Скачать  

19-10-2019 18:54 Трое из ада Скачать торрент  

Трое из ада / Three from Hell

Год выпуска: 2019
Страна: США
Жанр: Ужасы, криминал, триллер
Продолжительность: 01:55:48
Перевод: Любительский (двухголосый закадровый) LakeFilms
Субтитры: Английские, испанские
Оригинальная аудиодорожка: Английский

Режиссер: Роб Зомби / Rob Zombie

В ролях: Шери Мун Зомби, Билл Моусли, Ричард Брэйк, Сид Хэйг, Эмилио Ривера, Дэнни Трехо, Клинт Ховард, Дэниэл Робак, Джеффри Дэниэл Филлипс, Дэвид Ури

Описание: Три знаменитых маньяка, известные по фильму "Изгнанные дьяволом", чудом выжили в зверской перестрелке с полицейскими, и после этого каждый отправился отбывать срок. Капитана Сполдинга казнили, а Отис при помощи родного брата умудрился сбежать и теперь любой ценой постарается вытащить отмороженную сестрицу Бэйби из-за решётки.

скриншот  

Тип релиза: BDRemux 1080p
Контейнер: MKV

Видео: MPEG-4 AVC, 1080p, 1920:1080, 33045 Mbps, 23.976 fps
Аудио 1: АС3, 2 ch, 48 kHz, 384 kbps Русский DVO LakeFilms
Аудио 2: DTS-HD MA, 8 ch, 48 kHz, 4258 kbps, 24-bit (DTS Core 6 ch, 48 kHz, 1509 kbps) Английский
Формат субтитров: SRT, PGS
General
Unique ID : 14430385001605667079318712036724290199 (0xADB30E9336C32EDE18AA7ACFE53B297)
Complete name : G:\Three.from.Hell.2019.UNRATED.REMUX.mkv
Format : Matroska
Format version : Version 4 / Version 2
File size : 30.5 GiB
Duration : 1 h 55 min
Overall bit rate mode : Variable
Overall bit rate : 37.7 Mb/s
Encoded date : UTC 2019-10-19 15:23:29
Writing application : mkvmerge v20.0.0 ('I Am The Sun') 64-bit
Writing library : libebml v1.3.5 + libmatroska v1.4.8

Video
ID : 1
Format : AVC
Format/Info : Advanced Video Codec
Format profile : High@L4.1
Format settings : CABAC / 4 Ref Frames
Format settings, CABAC : Yes
Format settings, RefFrames : 4 frames
Codec ID : V_MPEG4/ISO/AVC
Duration : 1 h 55 min
Bit rate mode : Variable
Bit rate : 33.0 Mb/s
Maximum bit rate : 37.0 Mb/s
Width : 1 920 pixels
Height : 1 080 pixels
Display aspect ratio : 16:9
Frame rate mode : Constant
Frame rate : 23.976 (24000/1001) FPS
Color space : YUV
Chroma subsampling : 4:2:0
Bit depth : 8 bits
Scan type : Progressive
Bits/(Pixel*Frame) : 0.665
Stream size : 26.7 GiB (88%)
Language : English
Default : Yes
Forced : No

Audio #1
ID : 2
Format : AC-3
Format/Info : Audio Coding 3
Codec ID : A_AC3
Duration : 1 h 55 min
Bit rate mode : Constant
Bit rate : 384 kb/s
Channel(s) : 2 channels
Channel positions : Front: L R
Sampling rate : 48.0 kHz
Frame rate : 31.250 FPS (1536 SPF)
Bit depth : 16 bits
Compression mode : Lossy
Stream size : 318 MiB (1%)
Title : DVO LakeFilms
Language : Russian
Service kind : Complete Main
Default : Yes
Forced : No

Audio #2
ID : 3
Format : DTS
Format/Info : Digital Theater Systems
Format profile : MA / Core
Codec ID : A_DTS
Duration : 1 h 55 min
Bit rate mode : Variable / Constant
Bit rate : 4 258 kb/s / 1 509 kb/s
Channel(s) : 8 channels / 6 channels
Channel positions : Front: L C R, Side: L R, Back: L R, LFE / Front: L C R, Side: L R, LFE
Sampling rate : 48.0 kHz
Frame rate : 93.750 FPS (512 SPF)
Bit depth : 24 bits
Compression mode : Lossless / Lossy
Stream size : 3.44 GiB (11%)
Language : English
Default : No
Forced : No

Text #1
ID : 4
Format : UTF-8
Codec ID : S_TEXT/UTF8
Codec ID/Info : UTF-8 Plain Text
Duration : 1 h 46 min
Bit rate : 53 b/s
Count of elements : 1369
Stream size : 41.7 KiB (0%)
Language : English
Default : No
Forced : No

Text #2
ID : 5
Format : PGS
Muxing mode : zlib
Codec ID : S_HDMV/PGS
Codec ID/Info : Picture based subtitle format used on BDs/HD-DVDs
Duration : 1 h 46 min
Bit rate : 35.4 kb/s
Count of elements : 2789
Stream size : 27.0 MiB (0%)
Language : Spanish
Default : No
Forced : No

Menu
00:00:00.000 : en:Chapter 01
00:06:18.920 : en:Chapter 02
00:13:16.837 : en:Chapter 03
00:21:29.538 : en:Chapter 04
00:28:25.286 : en:Chapter 05
00:33:30.049 : en:Chapter 06
00:42:12.738 : en:Chapter 07
00:48:23.150 : en:Chapter 08
00:55:15.937 : en:Chapter 09
01:05:21.167 : en:Chapter 10
01:10:13.834 : en:Chapter 11
01:21:01.231 : en:Chapter 12
01:25:16.069 : en:Chapter 13
01:31:16.262 : en:Chapter 14
01:39:35.260 : en:Chapter 15
01:46:39.434 : en:Chapter 16
скриншот  скриншот  скриншот  
pb.wtf



Скачать Трое из ада через торрент http://i90.fastpic.ru/big/2019/1019/30/0c3df15d9e36a58d4c0991191fad2530.jpg Скачать фильм Трое из ада через торрент бесплантно в хорошем качестве Описание: Три знаменитых маньяка, известные по фильму "Изгнанные дьяволом", чудом выжили в зверской перестрелке с полицейскими, и после ... 10 10 2
Торрент: Зарегистрирован [2019-10-19 18:54] · скачан: 22 раз
Статус: T временная
Размер: 30.5 GB
Как cкачать? Как скачать Трое из ада через торрент | qTorrent

28-11-2019 20:33  

Отключить всю рекламу на сайте

    Дорогой пользователь! Огромная просьба, поблагодарите релизера, оцените раздачу и оставьте свои комментарий, если Вы скачали Трое из ада через торрент бесплатно! Внесите свою лепту в развитие PiratBit!
    Комментировать посты могут только пользователи прошедшие не сложную регистрацию
    Показать сообщения:    

    Трое из ада через торрент
    Скачать бесплатно Трое из ада
    Трое из ада скачать торрент
    Трое из ада смотреть онлайн
    Cкачать фильм Трое из ада бесплатно
    Трое из ада скачать торрент в хорошем качестве
    Трое из ада смотреть онлайн бесплатно в хорошем качестве


    Вы не можете начинать темы
    Вы не можете отвечать на сообщения
    Вы не можете редактировать свои сообщения
    Вы не можете удалять свои сообщения
    Вы не можете голосовать в опросах
    Вы не можете прикреплять файлы к сообщениям
    Вы можете скачивать файлы