новый адрес пиратбит piratbit
Мега распродажа FORZA HORIZON 4 ULTIMATE+ВСЕ DLC+ОНЛАЙН всего за 499р. 349 руб. (супер цена). Внимание количество ограничено!!!

iTunes

1+1

iTunes

мы

iTunes

1

iTunes

Чернобыль

iTunes

Ральф против интернета

Лицензия

ПШазам

Лицензия

Игра престолов

Лицензия

30
pack

ВАЖНО

!!Акция!!

Alien_RageХит недели

RePack

Resident Evil 21

ИГРА 18+

pack

RePack

Metro:Exodus

!!Акция!!

Alien_Rage

RePack

fifa19

RePack

Assassins Creed: Odyssey

RePack

NEED FOR SPEED™ PAYBACK

3 сезон

9 сезон

Бесстыжие 9 сезон

Все сериалы

все сериалы на PB.wtf

RePack

FAR CRY 5
Ребята, катастрофически не хватает 1900р. для оплаты серверов за Октябрь (всвязи с блокировками трафик упал в 3 раза), 1-2р., выручайте.
  

Калина красная (Василий Шукшин) [1973, драма, WEB-DLRip 1080p] - KORSAR pb.wtf

Калина красная через торрент pb.wtf

Размер: 6.53 GB | Добавлен: 26 д. назад | Торрент скачан:7 раз
Скачать  

19-10-2019 22:31 Калина красная Скачать торрент  

Калина красная
Год выхода: 1973
Страна: СССР
Жанр: Драма
Продолжительность: 01:41:53
Перевод: Не требуется
Cубтитры: Английские
Режиссёр: Василий Шукшин
В ролях: Василий Шукшин, Лидия Федосеева-Шукшина, Алексей Ванин, Георгий Бурков, Мария Виноградова, Наталия Гвоздикова, Лев Дуров, Николай Погодин, Жанна Прохоренко, Иван Рыжов, Татьяна Гаврилова, Мария Скворцова, Алексей Бахарь, Олег Корчиков, Валентина Ананьина
Описание: Егор Прокудин - человек сложной и необычной судьбы, много лет пробывший в заключении. Выйдя из тюрьмы, он решает податься в деревню. Там живет синеглазая незнакомка Люба, с которой он переписывался - ведь надо немного переждать и осмотреться. Но жизнь в деревне рушит все планы Прокудина и он решает навсегда порвать с прошлым. Теперь у Егора есть друзья, работа. Он любит Любу - и, кажется, счастлив. Однако дружки из прошлой жизни не собираются мириться с его свободой, потому и находят Егора.

rating

Качество: WEB-DLRip 1080p
Формат: MKV
Видео: MPEG-4 AVC, 1440x1078, 25.000 fps, 8500 Kbps
Аудио 1: Russian: AC3, 48 kHz, 5.1 ch, 448 Kbps
Аудио 2: Russian: AC3, 48 kHz, 1.0 ch, 224 Kbps

Релиз от:


• За исходник спасибо george$t
x264 [info]: frame I:695 Avg QP:18.45 size: 207533
x264 [info]: frame P:36439 Avg QP:20.79 size: 95579
x264 [info]: frame B:115702 Avg QP:22.01 size: 24795

===========================================

Общее
Уникальный идентификатор : 181702490894362240046298945003196835712 (0x88B2A0772A597DBA9EA5E980A6E4E780)
Полное имя : Калина красная.1973.WEB-DLRip.1080p.mkv
Формат : Matroska
Версия формата : Version 2
Размер файла : 6,53 Гбайт
Продолжительность : 1 ч. 41 м.
Общий поток : 9175 Кбит/сек
Дата кодирования : UTC 2017-01-17 00:28:39
Программа кодирования : mkvmerge v5.8.0 ('No Sleep / Pillow') built on Sep 2 2012 15:37:04
Библиотека кодирования : libebml v1.2.3 + libmatroska v1.3.0

Видео
Идентификатор : 1
Формат : AVC
Формат/Информация : Advanced Video Codec
Профиль формата : High@L4.1
Параметр CABAC формата : Да
Параметр ReFrames формата : 5 кадров
Идентификатор кодека : V_MPEG4/ISO/AVC
Продолжительность : 1 ч. 41 м.
Битрейт : 8500 Кбит/сек
Ширина : 1440 пикселей
Высота : 1078 пикселей
Соотношение сторон : 4:3
Режим частоты кадров : Постоянный
Частота кадров : 25,000 кадров/сек
Цветовое пространство : YUV
Субдискретизация насыщенности : 4:2:0
Битовая глубина : 8 бит
Тип развёртки : Прогрессивная
Бит/(Пиксели*Кадры) : 0.219
Размер потока : 5,92 Гбайт (91%)
Заголовок : Калина красная.1973.WEB-DLRip.1080p
Библиотека кодирования : x264 core 148 r2744kMod b97ae06
Настройки программы : cabac=1 / ref=5 / deblock=1:-2:-2 / analyse=0x3:0x113 / me=umh / subme=10 / psy=1 / fade_compensate=0.00 / psy_rd=1.05:0.10 / mixed_ref=1 / me_range=36 / chroma_me=1 / trellis=2 / 8x8dct=1 / cqm=0 / deadzone=21,11 / fast_pskip=0 / chroma_qp_offset=-3 / threads=12 / lookahead_threads=3 / sliced_threads=0 / nr=0 / decimate=0 / interlaced=0 / bluray_compat=0 / constrained_intra=0 / bframes=10 / b_pyramid=2 / b_adapt=2 / b_bias=0 / direct=3 / weightb=1 / open_gop=0 / weightp=2 / keyint=250 / keyint_min=25 / scenecut=40 / intra_refresh=0 / rc=2pass / mbtree=0 / bitrate=8500 / ratetol=1.0 / qcomp=0.63 / qpmin=0 / qpmax=39 / qpstep=4 / cplxblur=20.0 / qblur=0.5 / ip_ratio=1.20 / pb_ratio=1.30 / aq=3:0.90
Язык : English
Default : Да
Forced : Нет
Цветовой диапазон : Limited
Основные цвета : BT.709
Характеристики трансфера : BT.709
Коэффициенты матрицы : BT.709

Аудио #1
Идентификатор : 2
Формат : AC-3
Формат/Информация : Audio Coding 3
Расширение режима : CM (complete main)
Параметр Endianness формата : Big
Идентификатор кодека : A_AC3
Продолжительность : 1 ч. 41 м.
Вид битрейта : Постоянный
Битрейт : 448 Кбит/сек
Каналы : 6 каналов
Расположение каналов : Front: L C R, Side: L R, LFE
Частота : 48,0 КГц
Частота кадров : 31,250 кадров/сек (1536 spf)
Битовая глубина : 16 бит
Метод сжатия : С потерями
Размер потока : 326 Мбайт (5%)
Язык : Russian
Default : Да
Forced : Нет

Аудио #2
Идентификатор : 3
Формат : AC-3
Формат/Информация : Audio Coding 3
Расширение режима : CM (complete main)
Параметр Endianness формата : Big
Идентификатор кодека : A_AC3
Продолжительность : 1 ч. 41 м.
Вид битрейта : Постоянный
Битрейт : 224 Кбит/сек
Каналы : 1 канал
Расположение каналов : Front: C
Частота : 48,0 КГц
Частота кадров : 31,250 кадров/сек (1536 spf)
Битовая глубина : 16 бит
Метод сжатия : С потерями
Размер потока : 163 Мбайт (2%)
Язык : Russian
Default : Нет
Forced : Нет

Текст
Идентификатор : 4
Формат : UTF-8
Идентификатор кодека : S_TEXT/UTF8
Идентификатор кодека/Информация : UTF-8 Plain Text
Язык : English
Default : Нет
Forced : Нет

Меню
00:00:00.000 : ru:"Вечерний звон...". Титры
00:04:12.640 : ru:На свободе
00:11:28.960 : ru:Воровская "малина"
00:16:18.920 : ru:Люба Байкалова
00:25:05.120 : ru:Старики родители
00:34:57.280 : ru:В баньке
00:40:51.920 : ru:Вечернее застолье
00:44:16.120 : ru:В ночь. Не спится
00:46:39.400 : ru:"Нужен праздник!"
01:00:36.360 : ru:Французский коньяк
01:03:46.320 : ru:Работа
01:12:55.920 : ru:Мать
01:20:59.280 : ru:Бывший муж
01:24:31.040 : ru:"Березки-невестушки"
01:26:09.920 : ru:Предчувствие беды
01:31:58.800 : ru:Выстрел
pb.wtf



Скачать Калина красная через торрент https://i2.imageban.ru/out/2019/10/20/a3bdd936535e3bf5cfcbfcbccbe8c1c9.png Скачать фильм Калина красная через торрент бесплантно в хорошем качестве Описание: Егор Прокудин - человек сложной и необычной судьбы, много лет пробывший в заключении. Выйдя из тюрьмы, он решает податься в ... 8.5 10 2
Info! Золотая раздача, скачанное не засчитывается.
Торрент: Зарегистрирован [2019-10-19 22:31] · скачан: 7 раз
Статус: √ проверено
Размер: 6.53 GB
Как cкачать? Как скачать Калина красная через торрент | qTorrent


>> Регистрируемся здесь <<






Отзывы и комментарии о схеме читаем и пишем здесь: ---> Отзывы и комментарии о схеме

Новые благодарочки в телеграм довольных пользователей:
скриншот   скриншот   скриншот   скриншот   скриншот
    Дорогой пользователь! Огромная просьба, поблагодарите релизера, оцените раздачу и оставьте свои комментарий, если Вы скачали Калина красная через торрент бесплатно! Внесите свою лепту в развитие PiratBit!
    Комментировать посты могут только пользователи прошедшие не сложную регистрацию
    Показать сообщения:    

    Калина красная через торрент
    Скачать бесплатно Калина красная
    Калина красная скачать торрент
    Калина красная смотреть онлайн
    Cкачать фильм Калина красная бесплатно
    Калина красная скачать торрент в хорошем качестве
    Калина красная смотреть онлайн бесплатно в хорошем качестве


    Вы не можете начинать темы
    Вы не можете отвечать на сообщения
    Вы не можете редактировать свои сообщения
    Вы не можете удалять свои сообщения
    Вы не можете голосовать в опросах
    Вы не можете прикреплять файлы к сообщениям
    Вы можете скачивать файлы