Ссылка на приватное зеркало всего за 1$. Внимание количество ограничено!!!

OK

1+1

iTunes

мы

OK

1

WEB-DLRip

Джокер

Пифагор

Ведьмак / The Witcher сериал

Лицензия

ПШазам

ОК

Оно 2

iTunes

30
pack

Вам бонус

ВАЖНО

!!Акция!!

Alien_RageХит недели

RePack

Resident Evil 21

ИГРА 18+

pack

RePack

jed

!!Акция!!

Alien_Rage

RePack

fifa19

RePack

Assassins Creed: Odyssey

RePack

NEED FOR SPEED™ PAYBACK

4 сезон

9 сезон

Бесстыжие 9 сезон

Все сериалы

все сериалы на PB.wtf

RePack

FAR CRY 5
  

Тредстоун / Treadstone / Сезон: 1 / Серии: 1-10 из 10 (Рамин Бахрани) [2019, Боевик, WEB-DL 1080p] [MVO] (TVShows) pb.wtf

Тредстоун через торрент pb.wtf

Раздают: 1 [ 0 KB/s ]
Размер: 29.38 GB | Добавлен: 1 мес. назад | Торрент скачан:5 раз
Скачать  

20-10-2019 11:48 Тредстоун Скачать торрент  

ТРЕДСТОУНTreadstone
Год выпуска: 2019
Страна: США
Жанр: Боевик
Продолжительность: ~00:50:00
Перевод: Профессиональный (многоголосый закадровый) *TVShows*
Режиссёр: Рамин Бахрани

В ролях: Джереми Ирвин, Трэйси Айфичор, Мишель Форбс, Патрик Фьюджит, Майкл Гэстон, Тесс Хобрич, Джорджи Фармер, Косима Шоу, Дилан Смит, Оливер Уолкер и др.
Описание: Секретная программа ЦРУ «Тредстоун» превращает оперативников в смертоносных убийц с помощью модификаций поведения. Несколько подобных «спящих» агентов в разных уголках мира неожиданно оказываются активированными для выполнения загадочной миссии.
ratingскриншот  

Качество: WEB-DL 1080p
Формат: MKV
Видео: AVC, 1920x1080, 23.976 fps, ~8 700 kbps
Аудио Rus: AC3, 48 kHz, 6 ch, 384 kbps
Аудио Eng: E-AC3, 48 kHz, 6 ch, 640 kbps
Субтитры: eng
General
Unique ID : 72626952124095373061606366746898864554 (0x36A37133230CA006A9763D35597819AA)
Complete name : E:\Treadstone.S01.1080p.TVShows\Treadstone.S01E01.1080p.TVShows.mkv
Format : Matroska
Format version : Version 4 / Version 2
File size : 3.65 GiB
Duration : 52 min 44 s
Overall bit rate : 9 916 kb/s
Encoded date : UTC 2019-10-20 10:33:18
Writing application : mkvmerge v33.1.0 ('Primrose') 64-bit
Writing library : libebml v1.3.7 + libmatroska v1.5.0

Video
ID : 1
Format : AVC
Format/Info : Advanced Video Codec
Format profile : High@L4
Format settings : CABAC / 4 Ref Frames
Format settings, CABAC : Yes
Format settings, RefFrames : 4 frames
Codec ID : V_MPEG4/ISO/AVC
Duration : 52 min 44 s
Bit rate mode : Constant
Bit rate : 8 694 kb/s
Nominal bit rate : 10 000 kb/s
Width : 1 920 pixels
Height : 1 080 pixels
Display aspect ratio : 16:9
Frame rate mode : Constant
Frame rate : 23.976 (24000/1001) FPS
Color space : YUV
Chroma subsampling : 4:2:0
Bit depth : 8 bits
Scan type : Progressive
Bits/(Pixel*Frame) : 0.175
Stream size : 3.20 GiB (88%)
Default : Yes
Forced : No
Color range : Limited
Color primaries : BT.709
Transfer characteristics : BT.709
Matrix coefficients : BT.709

Audio #1
ID : 2
Format : AC-3
Format/Info : Audio Coding 3
Format settings, Endianness : Big
Codec ID : A_AC3
Duration : 52 min 44 s
Bit rate mode : Constant
Bit rate : 384 kb/s
Channel(s) : 6 channels
Channel positions : Front: L C R, Side: L R, LFE
Sampling rate : 48.0 kHz
Frame rate : 31.250 FPS (1536 SPF)
Bit depth : 16 bits
Compression mode : Lossy
Stream size : 145 MiB (4%)
Title : TVShows
Language : Russian
Service kind : Complete Main
Default : Yes
Forced : Yes

Audio #2
ID : 3
Format : E-AC-3
Format/Info : Enhanced Audio Coding 3
Format settings, Endianness : Big
Codec ID : A_EAC3
Duration : 52 min 44 s
Bit rate mode : Constant
Bit rate : 640 kb/s
Channel(s) : 6 channels
Channel positions : Front: L C R, Side: L R, LFE
Sampling rate : 48.0 kHz
Frame rate : 187.500 FPS (256 SPF)
Compression mode : Lossy
Stream size : 241 MiB (6%)
Title : Original
Language : English
Service kind : Complete Main
Default : No
Forced : No

Text
ID : 4
Format : UTF-8
Codec ID : S_TEXT/UTF8
Codec ID/Info : UTF-8 Plain Text
Title : English
Language : English
Default : No
Forced : No
скриншот   скриншот   скриншот  
Внимание! Раздача ведётся путём добавления новых серий; при каждом добавлении создаётся новый торрент. Чтобы начать докачку новой серии, пользователям необходимо сделать следующее:
(1) остановить скачивание,
(2) удалить старый торрент у себя из клиента (старые серии удалять не надо),
(3) скачать новый торрент и запустить его у себя в клиенте вместо старого, при этом указать клиенту путь в старую папку куда и должно происходить скачивание новых серий.

Ваш клиент при этом должен произвести хеширование (проверку) старой папки (если не производит сам - помогите ему сделать это), и будет докачивать только те серии которых у вас ещё нет. Старые серии при этом не удаляются, а продолжают раздаваться!

Eсли вы уже удалили старые серии, то предотвратить повторную закачку старых серий можно, отжав галочку в соответствующих местах при запуске нового торрента. По возможности, желательно не удалять старые серии как можно дольше чтобы релизёр не столько продолжал раздавать старые серии, а смог сконцентрироваться на новых.
pb.wtf



Скачать Тредстоун через торрент https://i86.fastpic.ru/big/2019/1017/cf/020916af95684314842e06bfbbe947cf.png Скачать фильм Тредстоун через торрент бесплантно в хорошем качестве Описание: Секретная программа ЦРУ «Тредстоун» превращает оперативников в смертоносных убийц с помощью модификаций поведения. Несколько ... 7.8 10 10
Торрент: Зарегистрирован [2019-12-20 15:04] · скачан: 5 раз
Статус: √ проверено
Размер: 29.38 GB
Как cкачать? Как скачать Тредстоун через торрент | qTorrent

% Раздел Тема Автор DL S | L
Зарубежные сериалы [ 29.35 GB ] Тредстоун / Treadstone / Сезон: 1 / Серии: 1-10 из 10 [2019 WEB-DL 1080p] MVO [SDI Media] bober100 Скачать
1 | 0
Зарубежные сериалы [ 30.88 GB ] Тредстоун / Treadstone / Сезон: 1 / Серии: 1-10 из 10 [2019 WEB-DL 1080p] MVO [Lostfilm] bober100 Скачать
1 | 1
Зарубежные сериалы [ 15.49 GB ] Тредстоун / Treadstone / Сезон: 1 / Серии: 1-10 из 10 [2019 WEB-DL 720p] MVO [Lostfilm] bober100 Скачать
2 | 1
Зарубежные сериалы [ 15.49 GB ] Тредстоун / Treadstone / Сезон: 1 / Серии: 1-10 из 10 [2019 WEB-DL 720p] [MVO] killermax2013 Скачать
3 | 0
Зарубежные сериалы [ 6.21 GB ] Тредстоун / Treadstone / Сезон: 1 / Серии: 1-10 из 10 [2019 WEB-DLRip] MVO [AlexFilm] - OlLanDGroup Skandar2019 Скачать
1 | 0
Зарубежные сериалы [ 15.49 GB ] Тредстоун / Treadstone / Сезон: 1 / Серии: 1-10 из 10 [2019 WEBRip 720p] MVO [NewStudio] bober100 Скачать
2 | 1
Зарубежные сериалы [ 31.6 GB ] Тредстоун / Treadstone / Сезон: 1 / Серии: 1-10 из 10 [2019 WEB-DL 1080p] 3x[MVO] killermax2013 Скачать
2 | 0


Последний раз редактировалось: killermax2013 (2019-12-20 15:04), всего редактировалось 10 раз(а)

28-11-2019 20:33  

Отключить всю рекламу на сайте

20-10-2019 11:52 Тредстоун Скачать торрент  



pb.wtf



12-11-2019 16:48 Тредстоун Скачать торрент  

В натуре держит в напряге.pb.wtf



    Дорогой пользователь! Огромная просьба, поблагодарите релизера, оцените раздачу и оставьте свои комментарий, если Вы скачали Тредстоун через торрент бесплатно! Внесите свою лепту в развитие PiratBit!
    Комментировать посты могут только пользователи прошедшие не сложную регистрацию
    Показать сообщения:    

    Тредстоун через торрент
    Скачать бесплатно Тредстоун
    Тредстоун скачать торрент
    Тредстоун смотреть онлайн
    Cкачать фильм Тредстоун бесплатно
    Тредстоун скачать торрент в хорошем качестве
    Тредстоун смотреть онлайн бесплатно в хорошем качестве


    Вы не можете начинать темы
    Вы не можете отвечать на сообщения
    Вы не можете редактировать свои сообщения
    Вы не можете удалять свои сообщения
    Вы не можете голосовать в опросах
    Вы не можете прикреплять файлы к сообщениям
    Вы можете скачивать файлы