Ссылка на приватное зеркало всего за 1$. Внимание количество ограничено!!!

OK

1+1

iTunes

мы

OK

1

WEB-DLRip

Джокер

Пифагор

Ведьмак / The Witcher сериал

Лицензия

ПШазам

ОК

Оно 2

iTunes

30
pack

Вам бонус

ВАЖНО

!!Акция!!

Alien_RageХит недели

RePack

Resident Evil 21

ИГРА 18+

pack

RePack

jed

!!Акция!!

Alien_Rage

RePack

fifa19

RePack

Assassins Creed: Odyssey

RePack

NEED FOR SPEED™ PAYBACK

4 сезон

9 сезон

Бесстыжие 9 сезон

Все сериалы

все сериалы на PB.wtf

RePack

FAR CRY 5
  

Тредстоун / Treadstone / Сезон: 1 / Серии: 1-10 из 10 (Рамин Бахрани) [2019, Боевик, WEB-DL 1080p] 3x[MVO] (NewStudio, AlexFilm, TVShows) pb.wtf

Тредстоун через торрент pb.wtf

Раздают: 1 [ 0 KB/s ]
Размер: 31.6 GB | Добавлен: 28 д. назад | Торрент скачан:5 раз
Скачать  

20-10-2019 12:23 Тредстоун Скачать торрент  



Тредстоун / Treadstone




«Из мира Джейсона Борна»


Год выпуска: 2019
Страна: США, Tailwind Productions, Imperative Entertainment, Captivate Entertainment
Жанр: боевик, драма
Продолжительность: ~ 00:52:00
Перевод 1: профессиональный (многоголосый закадровый) NewStudio
Перевод 2: профессиональный (многоголосый закадровый) AlexFilm
Перевод 3: профессиональный (многоголосый закадровый) TVShows

Режиссёр: Рамин Бахрани, Уэйн Йип

В ролях: Габриэль Шарницки, Джереми Ирвин, Хан Хё Чжу, Трэйси Айфичор, Эмилия Шуле, Майкл Гэстон, Мишель Форбс, Мартин Умбах, Дональд Сэйдж Маккэй, Дэвид Майклс

Описание: История начинается в 1973 году в Восточном Берлине, где агенты КГБ захватили 29-летнего американца Джона Рэндольфа Бентли. Пытаясь сломить волю мужчины, они невольно запустили экспериментальную программу ЦРУ «Тредстоун», выведя Джона из «спящего режима», после чего он превратился в смертоносного убийцу. В наши дни в разных уголках планеты начинают «пробуждаться» секретные агенты и действовать по заданному алгоритму, выполняя загадочную миссию. Американская разведка поднимает старые документы о закрытом проекте, намереваясь разобраться, кто стоит за внезапной активацией оперативников и какую цель преследует...

rating
скриншот  

Качество: WEB-DL 1080p
Контейнер: MKV
Видео: AVC, 1920x1080 (16:9), ~ 8680 Kbps, 23.976 fps
Аудио 1: AC3, 48 kHz, 6 ch, 384 kbps - Rus (NewStudio)
Аудио 2: AC3, 48 kHz, 6 ch, 384 kbps - Rus (AlexFilm)
Аудио 3: AC3, 48 kHz, 6 ch, 384 kbps - Rus (TVShows)
Аудио 4: AC3, 48 kHz, 6 ch, 640 kbps - Eng
Субтитры: Английские (SDH)

Спасибо:
Внимание! Раздача ведётся путём добавления новых серий; при каждом добавлении создаётся новый торрент.
Чтобы начать докачку новой серии, пользователям необходимо сделать следующее:
1. Остановить скачивание.
2. Удалить старый торрент у себя из клиента (старые серии удалять не надо).
3. Скачать новый торрент и запустить его у себя в клиенте вместо старого, при этом указать клиенту путь в старую папку куда и должно происходить скачивание новых серий.
Ваш клиент при этом должен произвести хеширование (проверку) старой папки (если не производит сам - помогите ему сделать это), и будет докачивать только те серии которых у вас ещё нет. Старые серии при этом не удаляются, а продолжают раздаваться!
Eсли вы уже удалили старые серии, то предотвратить повторную закачку старых серий можно, отжав галочку в соответствующих местах при запуске нового торрента.

Работа со звуком: Atla22
1-01. Протокол Цикада / The Cicada Protocol (15.10.2019)

Анонс:
1-02. The Kwon Conspiracy (22.10.2019)
1-03. The Berlin Proposal (29.10.2019)
1-04. The Kentucky Contract (05.11.2019)

Код:

Общее
Уникальный идентификатор                 : 185521824644451964555760788762106518065 (0x8B9234286FB929698D88F5B1A5C3DA31)
Полное имя                               : Тредстоун. Сериал. 2019. MVO. EniaHD (WEB-DL 1080p)\Treadstone.s01e01. Протокол Цикада.mkv
Формат                                   : Matroska
Версия формата                           : Version 2
Размер файла                             : 3,94 Гбайт
Продолжительность                        : 52 м. 44 с.
Общий поток                              : 10,7 Мбит/сек
Название фильма                          : The Cicada Protocol
Дата кодирования                         : UTC 2019-10-20 11:31:58
Программа кодирования                    : mkvmerge v6.9.1 ('Blue Panther') 32bit built on Apr 18 2014 18:15:44
Библиотека кодирования                   : libebml v1.3.0 + libmatroska v1.4.1

Видео
Идентификатор                            : 1
Формат                                   : AVC
Формат/Информация                        : Advanced Video Codec
Профиль формата                          : High@L4
Настройки формата                        : CABAC / 4 Ref Frames
Параметр CABAC формата                   : Да
Параметр RefFrames формата               : 4 кадра
Идентификатор кодека                     : V_MPEG4/ISO/AVC
Продолжительность                        : 52 м. 44 с.
Вид битрейта                             : Постоянный
Битрейт                                  : 8680 Кбит/сек
Номинальный битрейт                      : 10000 Кбит/сек
Ширина                                   : 1920 пикселей
Высота                                   : 1080 пикселей
Соотношение сторон                       : 16:9
Режим частоты кадров                     : Постоянный
Частота кадров                           : 23,976 (24000/1001) кадра/сек
Цветовое пространство                    : YUV
Субдискретизация насыщенности            : 4:2:0
Битовая глубина                          : 8 бит
Тип развёртки                            : Прогрессивная
Бит/(Пиксели*Кадры)                      : 0.175
Размер потока                            : 3,20 Гбайт (81%)
Язык                                     : English
Default                                  : Да
Forced                                   : Нет
Цветовой диапазон                        : Limited
Основные цвета                           : BT.709
Характеристики трансфера                 : BT.709
Коэффициенты матрицы                     : BT.709

Аудио #1
Идентификатор                            : 2
Формат                                   : AC-3
Формат/Информация                        : Audio Coding 3
Коммерческое название                    : Dolby Digital
Идентификатор кодека                     : A_AC3
Продолжительность                        : 52 м. 44 с.
Вид битрейта                             : Постоянный
Битрейт                                  : 384 Кбит/сек
Каналы                                   : 6 каналов
Channel layout                           : L R C LFE Ls Rs
Частота                                  : 48,0 КГц
Частота кадров                           : 31,250 кадров/сек (1536 SPF)
Битовая глубина                          : 16 бит
Метод сжатия                             : С потерями
Размер потока                            : 145 Мбайт (4%)
Заголовок                                : NewStudio
Язык                                     : Russian
ServiceKind/String                       : Complete Main
Default                                  : Да
Forced                                   : Нет

Аудио #2
Идентификатор                            : 3
Формат                                   : AC-3
Формат/Информация                        : Audio Coding 3
Коммерческое название                    : Dolby Digital
Идентификатор кодека                     : A_AC3
Продолжительность                        : 52 м. 44 с.
Вид битрейта                             : Постоянный
Битрейт                                  : 384 Кбит/сек
Каналы                                   : 6 каналов
Channel layout                           : L R C LFE Ls Rs
Частота                                  : 48,0 КГц
Частота кадров                           : 31,250 кадров/сек (1536 SPF)
Битовая глубина                          : 16 бит
Метод сжатия                             : С потерями
Размер потока                            : 145 Мбайт (4%)
Заголовок                                : AlexFilm
Язык                                     : Russian
ServiceKind/String                       : Complete Main
Default                                  : Нет
Forced                                   : Нет

Аудио #3
Идентификатор                            : 4
Формат                                   : AC-3
Формат/Информация                        : Audio Coding 3
Коммерческое название                    : Dolby Digital
Идентификатор кодека                     : A_AC3
Продолжительность                        : 52 м. 44 с.
Вид битрейта                             : Постоянный
Битрейт                                  : 384 Кбит/сек
Каналы                                   : 6 каналов
Channel layout                           : L R C LFE Ls Rs
Частота                                  : 48,0 КГц
Частота кадров                           : 31,250 кадров/сек (1536 SPF)
Битовая глубина                          : 16 бит
Метод сжатия                             : С потерями
Размер потока                            : 145 Мбайт (4%)
Заголовок                                : TVShows
Язык                                     : Russian
ServiceKind/String                       : Complete Main
Default                                  : Нет
Forced                                   : Нет

Аудио #4
Идентификатор                            : 5
Формат                                   : AC-3
Формат/Информация                        : Audio Coding 3
Коммерческое название                    : Dolby Digital
Идентификатор кодека                     : A_AC3
Продолжительность                        : 52 м. 44 с.
Вид битрейта                             : Постоянный
Битрейт                                  : 640 Кбит/сек
Каналы                                   : 6 каналов
Channel layout                           : L R C LFE Ls Rs
Частота                                  : 48,0 КГц
Частота кадров                           : 31,250 кадров/сек (1536 SPF)
Битовая глубина                          : 16 бит
Метод сжатия                             : С потерями
Размер потока                            : 241 Мбайт (6%)
Язык                                     : English
ServiceKind/String                       : Complete Main
Default                                  : Нет
Forced                                   : Нет

Текст
Идентификатор                            : 6
Формат                                   : UTF-8
Идентификатор кодека                     : S_TEXT/UTF8
Идентификатор кодека/Информация          : UTF-8 Plain Text
Заголовок                                : SDH
Язык                                     : English
Default                                  : Нет
Forced                                   : Нет

скриншот   скриншот   скриншот  
pb.wtf



Скачать Тредстоун через торрент https://funkyimg.com/i/2XVrN.png Скачать фильм Тредстоун через торрент бесплантно в хорошем качестве Описание: История начинается в 1973 году в Восточном Берлине, где агенты КГБ захватили 29-летнего американца Джона Рэндольфа Бентли. ... 10 10 6
Торрент: Зарегистрирован [2019-12-23 19:20] · скачан: 5 раз
Статус: √ проверено
Размер: 31.6 GB
Как cкачать? Как скачать Тредстоун через торрент | qTorrent

% Раздел Тема Автор DL S | L
Зарубежные сериалы [ 29.35 GB ] Тредстоун / Treadstone / Сезон: 1 / Серии: 1-10 из 10 [2019 WEB-DL 1080p] MVO [SDI Media] bober100 Скачать
1 | 0
Зарубежные сериалы [ 30.88 GB ] Тредстоун / Treadstone / Сезон: 1 / Серии: 1-10 из 10 [2019 WEB-DL 1080p] MVO [Lostfilm] bober100 Скачать
1 | 1
Зарубежные сериалы [ 15.49 GB ] Тредстоун / Treadstone / Сезон: 1 / Серии: 1-10 из 10 [2019 WEB-DL 720p] MVO [Lostfilm] bober100 Скачать
2 | 1
Зарубежные сериалы [ 15.49 GB ] Тредстоун / Treadstone / Сезон: 1 / Серии: 1-10 из 10 [2019 WEB-DL 720p] [MVO] killermax2013 Скачать
3 | 0
Зарубежные сериалы [ 29.38 GB ] Тредстоун / Treadstone / Сезон: 1 / Серии: 1-10 из 10 [2019 WEB-DL 1080p] [MVO] killermax2013 Скачать
2 | 0
Зарубежные сериалы [ 6.21 GB ] Тредстоун / Treadstone / Сезон: 1 / Серии: 1-10 из 10 [2019 WEB-DLRip] MVO [AlexFilm] - OlLanDGroup Skandar2019 Скачать
1 | 1
Зарубежные сериалы [ 15.49 GB ] Тредстоун / Treadstone / Сезон: 1 / Серии: 1-10 из 10 [2019 WEBRip 720p] MVO [NewStudio] bober100 Скачать
2 | 1

28-11-2019 20:33  

Отключить всю рекламу на сайте

    Дорогой пользователь! Огромная просьба, поблагодарите релизера, оцените раздачу и оставьте свои комментарий, если Вы скачали Тредстоун через торрент бесплатно! Внесите свою лепту в развитие PiratBit!
    Комментировать посты могут только пользователи прошедшие не сложную регистрацию
    Показать сообщения:    

    Тредстоун через торрент
    Скачать бесплатно Тредстоун
    Тредстоун скачать торрент
    Тредстоун смотреть онлайн
    Cкачать фильм Тредстоун бесплатно
    Тредстоун скачать торрент в хорошем качестве
    Тредстоун смотреть онлайн бесплатно в хорошем качестве


    Вы не можете начинать темы
    Вы не можете отвечать на сообщения
    Вы не можете редактировать свои сообщения
    Вы не можете удалять свои сообщения
    Вы не можете голосовать в опросах
    Вы не можете прикреплять файлы к сообщениям
    Вы можете скачивать файлы