Ссылка на приватное зеркало всего за 1$. Внимание количество ограничено!!!

OK

1+1

iTunes

мы

OK

1

WEB-DLRip

Джокер

Пифагор

Ведьмак / The Witcher сериал

Лицензия

ПШазам

ОК

Оно 2

iTunes

30
pack

Вам бонус

ВАЖНО

!!Акция!!

Alien_RageХит недели

RePack

Resident Evil 21

ИГРА 18+

pack

RePack

jed

!!Акция!!

Alien_Rage

RePack

fifa19

RePack

Assassins Creed: Odyssey

RePack

NEED FOR SPEED™ PAYBACK

4 сезон

9 сезон

Бесстыжие 9 сезон

Все сериалы

все сериалы на PB.wtf

RePack

FAR CRY 5
  

Нэнси Дрю / Nancy Drew / Сезон: 1 / Серии: 1-10 из 13 (Ларри Тенг) [2019, Детектив, WEB-DL 720p] MVO [TVShows] pb.wtf

Нэнси Дрю через торрент pb.wtf

Раздают: 1 [ 10 KB/s ] Качают: 1 [ 0 KB/s ]
Размер: 14.21 GB | Добавлен: 2 д. 9 ч. назад | Торрент скачан:1 раз
Скачать  

20-10-2019 18:16 Нэнси Дрю Скачать торрент  

Нэнси Дрю | Nancy Drew Год выпуска: 2019
Страна: США
Жанр: Детектив
Продолжительность: ~00:44:00
Перевод: Профессиональный (многоголосый закадровый) | TVShows
Субтитры: Английские

Режиссёр: Ларри Тенг

В ролях: Кеннеди МакМанн, Тунджи Касим, Мэддисон Джайзани, Леа Льюис

Описание: Нэнси Дрю только что окончила школу и собирается поступать в колледж в другом городе, а пока подрабатывает официанткой. Однако планы придётся отложить — происходит таинственное убийство, в котором подозревают нескольких подростков, в том числе и главную героиню. Ей придётся провести собственное расследование.

rating

Качество: WEB-DL 720p
Контейнер: MKV

Видео: MPEG-4 AVC, 1280x640, 23.976 fps, ~ 4897 kbps
Аудио 1: Русский, AC3, 48 kHz, 6 ch, 384 kbps
Аудио 2: Английский, E-AC3, 48 kHz, 6 ch, 640 kbps

Общее
Уникальный идентификатор : 259593138900915791356113653469422280002 (0xC34BD1E8AE3EB8BF95D12288AAD7DD42)
Полное имя : C:\Nancy.Drew.S01.720p.TVShows\Nancy.Drew.S01E01.720p.TVShows.mkv
Формат : Matroska
Версия формата : Version 4
Размер файла : 1,82 Гбайт
Продолжительность : 43 м. 58 с.
Общий поток : 5923 Кбит/сек
Дата кодирования : UTC 2019-10-12 16:36:01
Программа кодирования : mkvmerge v33.1.0 ('Primrose') 64-bit
Библиотека кодирования : libebml v1.3.7 + libmatroska v1.5.0

Видео
Идентификатор : 1
Формат : AVC
Формат/Информация : Advanced Video Codec
Профиль формата : High@L3.1
Настройки формата : CABAC / 4 Ref Frames
Параметр CABAC формата : Да
Параметр RefFrames формата : 4 кадра
Идентификатор кодека : V_MPEG4/ISO/AVC
Продолжительность : 43 м. 58 с.
Вид битрейта : Постоянный
Битрейт : 4897 Кбит/сек
Номинальный битрейт : 6000 Кбит/сек
Ширина : 1280 пикселей
Высота : 640 пикселей
Соотношение сторон : 2,000
Режим частоты кадров : Постоянный
Частота кадров : 23,976 (24000/1001) кадра/сек
Цветовое пространство : YUV
Субдискретизация насыщенности : 4:2:0
Битовая глубина : 8 бит
Тип развёртки : Прогрессивная
Бит/(Пиксели*Кадры) : 0.243
Размер потока : 1,47 Гбайт (81%)
Язык : English
Default : Да
Forced : Нет
Цветовой диапазон : Limited
Основные цвета : BT.709
Характеристики трансфера : BT.709
Коэффициенты матрицы : BT.709

Аудио #1
Идентификатор : 2
Формат : AC-3
Формат/Информация : Audio Coding 3
Коммерческое название : Dolby Digital
Идентификатор кодека : A_AC3
Продолжительность : 43 м. 58 с.
Вид битрейта : Постоянный
Битрейт : 384 Кбит/сек
Каналы : 6 каналов
ChannelLayout : L R C LFE Ls Rs
Частота : 48,0 КГц
Частота кадров : 31,250 кадров/сек (1536 SPF)
Битовая глубина : 16 бит
Метод сжатия : С потерями
Размер потока : 121 Мбайт (6%)
Заголовок : TVShows
Язык : Russian
ServiceKind/String : Complete Main
Default : Да
Forced : Да

Аудио #2
Идентификатор : 3
Формат : E-AC-3
Формат/Информация : Enhanced AC-3
Коммерческое название : Dolby Digital Plus
Идентификатор кодека : A_EAC3
Продолжительность : 43 м. 58 с.
Вид битрейта : Постоянный
Битрейт : 640 Кбит/сек
Каналы : 6 каналов
ChannelLayout : L R C LFE Ls Rs
Частота : 48,0 КГц
Частота кадров : 31,250 кадров/сек (1536 SPF)
Метод сжатия : С потерями
Размер потока : 201 Мбайт (11%)
Заголовок : Original
Язык : English
ServiceKind/String : Complete Main
Default : Нет
Forced : Нет

Текст
Идентификатор : 4
Формат : UTF-8
Идентификатор кодека : S_TEXT/UTF8
Идентификатор кодека/Информация : UTF-8 Plain Text
Заголовок : English
Язык : English
Default : Нет
Forced : Нет

При каждом добавлении создаётся новый торрент. Чтобы начать докачку новой серии, пользователям необходимо сделать следующее:

остановить скачивание,
удалить старый торрент у себя из клиента (старые серии удалять не надо),
скачать новый торрент и запустить его у себя в клиенте вместо старого, при этом указать клиенту путь в старую папку куда и должно происходить скачивание новых серий.

Ваш клиент при этом должен произвести хеширование (проверку) старой папки (если не производит сам - помогите ему сделать это), и будет докачивать только те серии которых у вас ещё нет. Старые серии при этом не удаляются, а продолжают раздаваться!
Eсли вы уже удалили старые серии, то предотвратить повторную закачку старых серий можно, отжав галочку в соответствующих местах при запуске нового торрента. По возможности, желательно не удалять старые серии как можно дольше чтобы релизёр не столько продолжал раздавать старые серии, а смог сконцентрироваться на новых.
pb.wtf



Скачать Нэнси Дрю через торрент https://funkyimg.com/i/2XGvD.png Скачать фильм Нэнси Дрю через торрент бесплантно в хорошем качестве Описание: Нэнси Дрю только что окончила школу и собирается поступать в колледж в другом городе, а пока подрабатывает официанткой. Однако ... 10 10 2
Торрент: Зарегистрирован [2020-01-18 12:43] · скачан: 1 раз
Статус: √ проверено
Размер: 14.21 GB
Как cкачать? Как скачать Нэнси Дрю через торрент | qTorrent

28-11-2019 20:33  

Отключить всю рекламу на сайте

    Дорогой пользователь! Огромная просьба, поблагодарите релизера, оцените раздачу и оставьте свои комментарий, если Вы скачали Нэнси Дрю через торрент бесплатно! Внесите свою лепту в развитие PiratBit!
    Комментировать посты могут только пользователи прошедшие не сложную регистрацию
    Показать сообщения:    

    Нэнси Дрю через торрент
    Скачать бесплатно Нэнси Дрю
    Нэнси Дрю скачать торрент
    Нэнси Дрю смотреть онлайн
    Cкачать фильм Нэнси Дрю бесплатно
    Нэнси Дрю скачать торрент в хорошем качестве
    Нэнси Дрю смотреть онлайн бесплатно в хорошем качестве


    Вы не можете начинать темы
    Вы не можете отвечать на сообщения
    Вы не можете редактировать свои сообщения
    Вы не можете удалять свои сообщения
    Вы не можете голосовать в опросах
    Вы не можете прикреплять файлы к сообщениям
    Вы можете скачивать файлы