2 сезон

iTunes

MVO

1

2 сезон

iTunes

iTunes

1 сезон

RePack

30

Новинка

ВАЖНО

ИГРА 18+

pack

RePack

MK11
pack

Легкие деньги

RePack

jed

RePack

fifa19

RePack

RDR2

RePack

NEED FOR SPEED™ PAYBACK

4 сезон

9 сезон

Бесстыжие 9 сезон

Все сериалы

все сериалы на PB.wtf

RePack

FAR CRY 5

Anonymous, добрый вечер, мы не успеваем собрать деньги на оплату серверов за декабрь и январь, помогите нам пожалуйста в это трудное время. В качестве благодарности мы отключим Вам всю рекламу на сайте (укажите свой ник в строку Ваше имя)!

×
  
Magnet ссылка

Сирена / Siren / Сезон: 2 / Серии: 1-16 из 16 (Джо Менендес, Ник Копус, Джон Бэдэм) [2019, фэнтези, драма, WEB-DL 720p] MVO [TVShows] pb.wtf

Сирена через торрент pb.wtf

Размер: 24.08 GB | Добавлен: 1 год 2 мес. назад | Торрент скачан:15 раз
Скачать  

21-10-2019 04:56 Сирена Скачать торрент  

Сирена | Siren Год выпуска: 2019
Страна: США
Жанр: фэнтези, драма
Продолжительность: ~ 00:42:00
Перевод: Профессиональный (многоголосый закадровый) | TVShows
Субтитры: английские

Режиссёр: Джо Менендес, Ник Копус, Джон Бэдэм

В ролях: Алекс Роу, Элайн Пауэлл, Фола Эванс-Экинбола, Йен Вердён, Рина Оуэн, Тэмми Гиллис, Кертис Льюм, Ханна Левиен и др.

Описание: У каждого маленького городка есть свои истории, которые его жители передают из поколения в поколение. Небольшой прибрежный городок Бристоль Кейв когда-то был местом обитания русалок, и, если верить городским легендам, эти существа вовсе не были столь безобидными, как в мультфильмах или сказках. Может быть, все это выдумки, но Бену с детства нравилось слушать рассказы о русалках. Став взрослым, парень выучился на морского биолога, но он даже не подозревал, что однажды сможет убедиться в существовании русалок. Этому предшествовала встреча Бена с Рин – загадочной девушкой, которая однажды выскочила на дорогу перед его машиной. Бен довольно быстро понимает, что Рин – необычная девушка, тем более что после ее появления в Бристоль Кейве начинают происходить странные события. Что все это сулит их городку, жизнь в котором всегда была мирной и тихой?

rating


Качество: WEB-DL 720p
Формат: MKV

Видео: 1280x720 (16:9), 23.976 fps, MPEG-4 AVC ~4 674 kbps avg
Аудио#1: 48.0 kHz, AC3 Dolby Digital, 3/2 (L,C,R,l,r) + LFE ch, ~384 kbps | RUS / MVO
Аудио#2: 48.0 kHz, Enhanced Audio Coding 3, 3/2 (L,C,R,l,r) + LFE ch, ~640 kbps | ENG
скриншот  скриншот  скриншот  

Общее
Уникальный идентификатор : 225924243058623645721068970269464497768 (0xA9F76D2E3FE36B00CDD56A36B4428E68)
Полное имя : C:\Siren.S02.720p.TVShows\Siren.S02E01.720p.TVShows.mkv
Формат : Matroska
Версия формата : Version 4
Размер файла : 1,71 Гбайт
Продолжительность : 42 м. 7 с.
Общий поток : 5814 Кбит/сек
Дата кодирования : UTC 2019-02-04 20:52:49
Программа кодирования : mkvmerge v30.1.0 ('Forever And More') 64-bit
Библиотека кодирования : libebml v1.3.6 + libmatroska v1.4.9

Видео
Идентификатор : 1
Формат : AVC
Формат/Информация : Advanced Video Codec
Профиль формата : High@L3.1
Настройки формата : CABAC / 4 Ref Frames
Параметр CABAC формата : Да
Параметр RefFrames формата : 4 кадра
Идентификатор кодека : V_MPEG4/ISO/AVC
Продолжительность : 42 м. 7 с.
Вид битрейта : Постоянный
Битрейт : 4674 Кбит/сек
Номинальный битрейт : 6000 Кбит/сек
Ширина : 1280 пикселей
Высота : 720 пикселей
Соотношение сторон : 16:9
Режим частоты кадров : Постоянный
Частота кадров : 23,976 (24000/1001) кадра/сек
Цветовое пространство : YUV
Субдискретизация насыщенности : 4:2:0
Битовая глубина : 8 бит
Тип развёртки : Прогрессивная
Бит/(Пиксели*Кадры) : 0.212
Размер потока : 1,38 Гбайт (80%)
Default : Да
Forced : Нет
Цветовой диапазон : Limited
Основные цвета : BT.709
Характеристики трансфера : BT.709
Коэффициенты матрицы : BT.709

Аудио #1
Идентификатор : 2
Формат : AC-3
Формат/Информация : Audio Coding 3
Коммерческое название : Dolby Digital
Идентификатор кодека : A_AC3
Продолжительность : 42 м. 7 с.
Вид битрейта : Постоянный
Битрейт : 384 Кбит/сек
Каналы : 6 каналов
ChannelLayout : L R C LFE Ls Rs
Частота : 48,0 КГц
Частота кадров : 31,250 кадров/сек (1536 SPF)
Битовая глубина : 16 бит
Метод сжатия : С потерями
Размер потока : 116 Мбайт (7%)
Заголовок : TVShows
Язык : Russian
ServiceKind/String : Complete Main
Default : Да
Forced : Да

Аудио #2
Идентификатор : 3
Формат : E-AC-3
Формат/Информация : Enhanced AC-3
Коммерческое название : Dolby Digital Plus
Идентификатор кодека : A_EAC3
Продолжительность : 42 м. 7 с.
Вид битрейта : Постоянный
Битрейт : 640 Кбит/сек
Каналы : 6 каналов
ChannelLayout : L R C LFE Ls Rs
Частота : 48,0 КГц
Частота кадров : 31,250 кадров/сек (1536 SPF)
Метод сжатия : С потерями
Размер потока : 193 Мбайт (11%)
Заголовок : Original
Язык : English
ServiceKind/String : Complete Main
Default : Нет
Forced : Нет

Текст
Идентификатор : 4
Формат : UTF-8
Идентификатор кодека : S_TEXT/UTF8
Идентификатор кодека/Информация : UTF-8 Plain Text
Заголовок : English
Язык : English
Default : Нет
Forced : Нет

pb.wtf



Скачать Сирена через торрент https://i109.fastpic.ru/big/2019/0209/a0/a4f93fb88ddc4abdeac05bf723fe17a0.jpg Скачать фильм Сирена через торрент бесплантно в хорошем качестве Описание: У каждого маленького городка есть свои истории, которые его жители передают из поколения в поколение. Небольшой прибрежный ... 10 10 2
Торрент: Зарегистрирован [2019-10-21 04:56] · скачан: 15 раз
Статус: √ проверено
Размер: 24.08 GB
Как cкачать? Как скачать Сирена через торрент | UTorrent

% Раздел Тема Автор DL S | L
Зарубежные сериалы [ 46.98 GB ] Сирена / Siren / Сезон: 2 / Серии: 1-16 из 16 [2019 WEB-DL 1080p] DUB [Кириллица] bober100 Скачать
1 | 0
Зарубежные сериалы [ 11.26 GB ] Сирена / Siren / Сезон: 2 / Серии: 1-16 из 16 [2019 WEB-DLRip] MVO [TVShows] bober100 Скачать
1 | 0
Зарубежные сериалы [ 22.56 GB ] Сирена / Siren / Сезон: 2 / Серии: 1-16 из 16 [2019 WEBRip 720p] MVO [LostFilm] bober100 Скачать
1 | 0
Зарубежные сериалы [ 3.6 GB ] Сирена / Siren / Сезон: 2 / Серии: 1-8 из 16 [2019 WEB-DLRip] MVO [Lostfilm] bober100 Скачать
1 | 0
Зарубежные сериалы [ 45.97 GB ] Сирена / Siren / Сезон: 2 / Серии: 1-16 из 16 [2019 WEB-DL 1080p] [MVO] killermax2013 Скачать
1 | 0
Зарубежные сериалы [ 22.88 GB ] Сирена / Siren / Сезон: 2 / Серии: 1-16 из 16 [2019 WEB-DL 720p] MVO [AlexFilm] bober100 Скачать
1 | 0
Зарубежные сериалы [ 7.72 GB ] Сирена / Siren / Сезон: 2 / Серии: 1-16 из 16 [2019 WEB-DLRip] MVO [AlexFilm] bober100 Скачать
1 | 0

28-11-2019 20:33  

Отключить всю рекламу на сайте

21-05-2020 07:15 Сирена Скачать торрент  

ни одного отзыва,ну железные я после просмотра 2 сезона захотел всех кто причастен к сериалу убить а главного героя расчленить заставить сожрать свое нутроpb.wtf



    Дорогой пользователь! Огромная просьба, поблагодарите релизера, оцените раздачу и оставьте свои комментарий, если Вы скачали Сирена через торрент бесплатно! Внесите свою лепту в развитие PiratBit!
    Комментировать посты могут только пользователи прошедшие не сложную регистрацию
    Показать сообщения:    

    Сирена через торрент
    Скачать бесплатно Сирена
    Сирена скачать торрент
    Сирена смотреть онлайн
    Cкачать фильм Сирена бесплатно
    Сирена скачать торрент в хорошем качестве
    Сирена смотреть онлайн бесплатно в хорошем качестве


    Вы не можете начинать темы
    Вы не можете отвечать на сообщения
    Вы не можете редактировать свои сообщения
    Вы не можете удалять свои сообщения
    Вы не можете голосовать в опросах
    Вы не можете прикреплять файлы к сообщениям
    Вы можете скачивать файлы