Ссылка на приватное зеркало нашего сайта всего за 1$. Внимание количество ограничено!!!

2 сезон

iTunes

1 сезон

1

iTunes

iTunes

iTunes

1 сезон

RePack

30

ИГРА 18+

pack

ВАЖНО

!!Акция!!

Alien_RageХит недели

RePack

MK11
pack

Забери бонус

RePack

jed

!!Акция!!

Alien_Rage

RePack

fifa19

RePack

Assassins Creed: Odyssey

RePack

NEED FOR SPEED™ PAYBACK

4 сезон

9 сезон

Бесстыжие 9 сезон

Все сериалы

все сериалы на PB.wtf

RePack

FAR CRY 5
  

Кумир / Сезон: 1 / Серии: 1-8 из 8 (Владимир Балкашинов) [2019, Детектив, драма, WEB-DLRip] pb.wtf

Кумир через торрент pb.wtf

Размер: 5.04 GB | Добавлен: 11 мес. назад | Торрент скачан:53 раза
Скачать  

21-10-2019 09:53 Кумир Скачать торрент  

Кумир
Год выпуска: 2019
Страна: Россия
Жанр: Детектив, драма
Продолжительность: ~ 00:45:00
Субтитры: отсутствуют

Режиссер: Владимир Балкашинов



В ролях: Дмитрий Лабуш, Анастасия Тюнина, Вячеслав Чепурченко, Владимир Маслаков, Алексей Яровенко, Ольга Кузьмина, Артур Ваха, Кристина Кузьмина, Родион Приходько, Олег Андреев, Андрей Полищук, Юрий Ицков, Александра Никифорова, Юлия Марченко, Яков Шамшин, Павел Харизанов, Анастасия Фурса, Александр Аравушкин, Любовь Макеева, Сергей Малюгов, Алексей Байдаков, Артём Лещик, Игорь Лепихин, Филипп Ершов, Игорь Ботвин, Сергей Уманов

Описание: Москва. 1966 год. Молодая звезда советского футбола Валерий Гусько обвиняется в убийстве. Все улики против Гусько. Единственная надежда на случайного свидетеля, фотографа-любителя Костю Лопушанского. Костик и Валера в детстве играли в одной футбольной команде, где тренером был отец Кости. И сейчас, ради переживающего за любимого воспитанника отца, Костя решается помочь следствию. В качестве «подсадной утки» его внедряют в неведомый ему доселе мир московской фарцы и богемы…

Качество: WEB-DLRip
Формат: AVI

Видео: 720x400 (1.80:1), 25 fps, XviD ~1600 kbps avg, 0.222 bit/pixel
Аудио: 48.0 kHz, AC3 Dolby Digital, 2/0 (L,R) ch, ~ 192 kbps
скриншот  скриншот  скриншот  скриншот  скриншот  

General
Complete name : D:\Кумир.2019. WEB-DLRip. Files-x\01. Кумир.2019. WEB-DLRip. Files-x.avi
Format : AVI
Format/Info : Audio Video Interleave
File size : 660 MiB
Duration : 51 min 12 s
Overall bit rate : 1 802 kb/s
Writing application : VirtualDubMod 1.5.10.3 | www.virtualdub-fr.org || (build 2550/release)
Writing library : VirtualDubMod build 2550/release

Video
ID : 0
Format : MPEG-4 Visual
Format profile : Advanced Simple@L5
Format settings : BVOP1 / Custom Matrix
Format settings, BVOP : 1
Format settings, QPel : No
Format settings, GMC : No warppoints
Format settings, Matrix : Custom
Codec ID : XVID
Codec ID/Hint : XviD
Duration : 51 min 12 s
Bit rate : 1 600 kb/s
Width : 720 pixels
Height : 400 pixels
Display aspect ratio : 16:9
Frame rate : 25.000 FPS
Color space : YUV
Chroma subsampling : 4:2:0
Bit depth : 8 bits
Scan type : Progressive
Compression mode : Lossy
Bits/(Pixel*Frame) : 0.222
Stream size : 586 MiB (89%)
Writing library : XviD 73

Audio
ID : 1
Format : AC-3
Format/Info : Audio Coding 3
Codec ID : 2000
Duration : 51 min 12 s
Bit rate mode : Constant
Bit rate : 192 kb/s
Channel(s) : 2 channels
Channel positions : Front: L R
Sampling rate : 48.0 kHz
Frame rate : 31.250 FPS (1536 SPF)
Bit depth : 16 bits
Compression mode : Lossy
Stream size : 70.3 MiB (11%)
Alignment : Split accross interleaves
Interleave, duration : 40 ms (1.00 video frame)
Interleave, preload duratio : 500 ms
Service kind : Complete Main

Внимание! Раздача ведётся путём добавления новых серий; при каждом добавлении создfётся новый торрент. Чтобы начать докачку новой серии, пользователям необходимо сделать следующее: (1) остановить скачивание, (2) удалить старый торрент у себя из клиента (старые серии удалять не надо), (3) скачать новый торрент и запустить его у себя в клиенте вместо старого, при этом указать клиенту путь в старую папку куда и должно происходить скачивание новых серий.

Ваш клиент при этом должен произвести хеширование (проверку) старой папки (если не производит сам - помогите ему сделать это), и будет докачивать только те серии которых у вас ещё нет. Старые серии при этом не удаляются, а продолжают раздаваться!

Eсли вы уже удалили старые серии, то предотвратить повторную закачку старых серий можно, отжав галочку в соответсвующих местах при запуске нового торрента.
pb.wtf



Скачать Кумир через торрент https://b.radikal.ru/b10/1910/50/de8c6d30dba0.jpg Скачать фильм Кумир через торрент бесплантно в хорошем качестве Описание: Москва. 1966 год. Молодая звезда советского футбола Валерий Гусько обвиняется в убийстве. Все улики против Гусько. Единственная ... 9.8 10 5
Торрент: Зарегистрирован [2019-11-14 14:54] · скачан: 53 раз
Статус: √ проверено
Размер: 5.04 GB
Как cкачать? Как скачать Кумир через торрент | qTorrent

% Раздел Тема Автор DL S | L
Наши сериалы [ 5.02 GB ] Кумир / Сезон: 1 / Серии: 1-8 из 8 [2019 WEBRip-AVC] bober100 Скачать
1 | 0
Наши сериалы [ 8.94 GB ] Кумир / Сезон: 1 / Серии: 1-8 из 8 [2019 WEBRip 1080p] bober100 Скачать
1 | 0

28-11-2019 20:33  

Отключить всю рекламу на сайте

    Дорогой пользователь! Огромная просьба, поблагодарите релизера, оцените раздачу и оставьте свои комментарий, если Вы скачали Кумир через торрент бесплатно! Внесите свою лепту в развитие PiratBit!
    Комментировать посты могут только пользователи прошедшие не сложную регистрацию
    Показать сообщения:    

    Кумир через торрент
    Скачать бесплатно Кумир
    Кумир скачать торрент
    Кумир смотреть онлайн
    Cкачать фильм Кумир бесплатно
    Кумир скачать торрент в хорошем качестве
    Кумир смотреть онлайн бесплатно в хорошем качестве


    Вы не можете начинать темы
    Вы не можете отвечать на сообщения
    Вы не можете редактировать свои сообщения
    Вы не можете удалять свои сообщения
    Вы не можете голосовать в опросах
    Вы не можете прикреплять файлы к сообщениям
    Вы можете скачивать файлы