Ссылка на приватное зеркало нашего сайта всего за 1$. Внимание количество ограничено!!!

2 сезон

iTunes

1 сезон

1

iTunes

iTunes

iTunes

1 сезон

RePack

30

ИГРА 18+

pack

ВАЖНО

!!Акция!!

Alien_RageХит недели

RePack

MK11
pack

Забери бонус

RePack

jed

!!Акция!!

Alien_Rage

RePack

fifa19

RePack

Assassins Creed: Odyssey

RePack

NEED FOR SPEED™ PAYBACK

4 сезон

9 сезон

Бесстыжие 9 сезон

Все сериалы

все сериалы на PB.wtf

RePack

FAR CRY 5
  

Мосгаз. Новое дело майора Черкасова / Формула мести / Сезон: 6 / Серии: 1-8 из 8 (Сергей Коротаев) [2019, Детектив, триллер, HDTV 1080i] pb.wtf

Мосгаз. Новое дело майора Черкасова через торрент pb.wtf

Качают: 1 [ 0 KB/s ]
Размер: 19.19 GB | Добавлен: 1 год назад | Торрент скачан:207 раз
Скачать  

21-10-2019 17:00 Мосгаз. Новое дело майора Черкасова Скачать торрент  

Мосгаз. Новое дело майора Черкасова / Формула мести
Год выпуска: 2019
Страна: Россия
Жанр: Детектив, триллер
Продолжительность: ~ 00:50:00
Перевод: Не требуется
Субтитры: отсутствуют

Режиссер: Сергей Коротаев

В ролях: Андрей Смоляков, Марина Александрова, Александр Лазарев (младший), Евгения Крюкова, Дарья Урсуляк, Светлана Немоляева, Алексей Бардуков, Юрий Чурсин, Александр Голубев, Сергей Гармаш, Дмитрий Астрахан, Софья Евстигнеева, Алексей Барабаш, Сергей Степанченко, Александра Куликова, Евгений Перевалов, Галина Бокашевская, Даниэла Стоянович, Лариса Удовиченко, Александр Дробитько

Описание: Шестой сезон сериала о майоре милиции Иване Черкасове из цикла криминальных расследований, в который входят сериалы "Мосгаз", "Палач", "Паук", "Шакал", "Операция Сатана".
1977 год. Иван Петрович Черкасов, как всегда, занят расследованием сложного и запутанного дела. С крыши сбросили студента архитектурного института. Его мать покончила с собой. Следы ведут на ипподром, где погиб жокей. И на окраине находят труп одного из служителей ипподрома. Подозреваемые – жители элитного дома, деятели культуры. Среди них и певец, и модельер, и знаменитые актеры, часто посещающие ипподром. Черкасов догадывается, что преступник – один из них. Иван Петрович довольно быстро выходит на исполнителей убийств, но есть еще и некий организатор преступлений, вычислить которого никак не удается.

Качество: HDTV 1080i
Формат: TS

Видео: AVC, ~ 5500 Кбит/с, 1920x1080, 25 кадр/с
Аудио#1: Русский (AC3, 6 ch, 384 Кбит/с)
Аудио#2: Русский (MP2, 2 ch, 192 Кбит/с)
скриншот  скриншот  скриншот  скриншот  

Общее
Идентификатор : 1 (0x1)
Полное имя : D:ЗаписьMosgaz. Novoe delo majora Cherkasova.HDTV(1080i).GeneralFilm1.Mosgaz. Novoe delo majora Cherkasova.HDTV(1080i).GeneralFilm.ts
Формат : MPEG-TS
Размер файла : 2,09 Гбайт
Продолжительность : 48 м. 15 с.
Режим общего битрейта : Переменный
Общий поток : 6195 Кбит/сек

Видео
Идентификатор : 1904 (0x770)
Идентификатор меню : 5640 (0x1608)
Формат : AVC
Формат/Информация : Advanced Video Codec
Профиль формата : High@L4
Параметр CABAC формата : Да
Параметр ReFrames формата : 3 кадра
Идентификатор кодека : 27
Продолжительность : 48 м. 15 с.
Битрейт : 5307 Кбит/сек
Ширина : 1920 пикселей
Высота : 1080 пикселей
Соотношение сторон : 16:9
Частота кадров : 25,000 кадров/сек
Стандарт вещания : Component
Цветовое пространство : YUV
Субдискретизация насыщенности : 4:2:0
Битовая глубина : 8 бит
Тип развёртки : Чересстрочная
Метод сохранения типа развёртки : Раздельные поля
Порядок развёртки : Верхнее поле первое
Бит/(Пиксели*Кадры) : 0.102
Размер потока : 1,79 Гбайт (86%)
Цветовой диапазон : Limited
Основные цвета : BT.709
Характеристики трансфера : BT.709
Коэффициенты матрицы : BT.709

Аудио #1
Идентификатор : 2904 (0xB58)
Идентификатор меню : 5640 (0x1608)
Формат : AC-3
Формат/Информация : Audio Coding 3
Расширение режима : CM (complete main)
Параметр Endianness формата : Big
Идентификатор кодека : 6
Продолжительность : 48 м. 15 с.
Вид битрейта : Постоянный
Битрейт : 384 Кбит/сек
Каналы : 6 каналов
Расположение каналов : Front: L C R, Side: L R, LFE
Частота : 48,0 КГц
Частота кадров : 31,250 кадров/сек (1536 spf)
Битовая глубина : 16 бит
Метод сжатия : С потерями
Задержка видео : -40 мс.
Размер потока : 133 Мбайт (6%)
Язык : Russian

Аудио #2
Идентификатор : 2905 (0xB59)
Идентификатор меню : 5640 (0x1608)
Формат : MPEG Audio
Версия формата : Version 1
Профиль формата : Layer 2
Идентификатор кодека : 3
Продолжительность : 48 м. 15 с.
Вид битрейта : Постоянный
Битрейт : 192 Кбит/сек
Каналы : 2 канала
Частота : 48,0 КГц
Метод сжатия : С потерями
Задержка видео : -40 мс.
Размер потока : 66,3 Мбайт (3%)
Язык : Russian

Раздача ведётся путём добавления новых серий, при каждом добавлении создаётся новый торрент. Чтобы начать докачку новой серии, пользователям необходимо сделать следующее:

- Остановить скачивание.
- Удалить старый торрент у себя из клиента (старые серии удалять не надо).
- Скачать новый торрент и запустить его у себя в клиенте вместо старого, при этом указать клиенту путь в старую папку куда и должно происходить скачивание новых серий.

Ваш клиент при этом должен произвести хеширование (проверку) старой папки (если не производит сам - помогите ему сделать это), и будет докачивать только те серии которых у вас ещё нет. Старые серии при этом не удаляются, а продолжают раздаваться!
Если вы уже удалили старые серии, то предотвратить повторную закачку старых серий можно, отжав галочку в соответствующих местах при запуске нового торрента. По возможности, желательно не удалять старые серии как можно дольше, чтобы релизер не столько продолжал раздавать старые серии, а смог сконцентрироваться на новых.
pb.wtf



Скачать Мосгаз. Новое дело майора Черкасова через торрент http://b.radikal.ru/b33/1910/88/170ce828213d.jpg Скачать фильм Мосгаз. Новое дело майора Черкасова через торрент бесплантно в хорошем качестве Описание: Шестой сезон сериала о майоре милиции Иване Черкасове из цикла криминальных расследований, в который входят сериалы "Мосгаз", ... 9 10 9
Торрент: Зарегистрирован [2019-10-24 16:56] · скачан: 207 раз
Статус: √ проверено
Размер: 19.19 GB
Как cкачать? Как скачать Мосгаз. Новое дело майора Черкасова через торрент | qTorrent

% Раздел Тема Автор DL S | L
Наши сериалы [ 4.79 GB ] Мосгаз. Новое дело майора Черкасова / Формула мести / Сезон: 6 / Серии: 1-8 из 8 [2019 HDTVRip] bober100 Скачать
1 | 0
Наши сериалы [ 4.69 GB ] Мосгаз. Новое дело майора Черкасова / Формула мести / Сезон: 6 / Серии: 1-8 из 8 [2019 SATRip] bober100 Скачать
1 | 1
Наши сериалы [ 9.92 GB ] Мосгаз. Новое дело майора Черкасова / Формула мести / Сезон: 6 / Серии: 1-8 из 8 [2019 HDTVRip 720p] bober100 Скачать
2 | 0
Наши сериалы [ 5.89 GB ] Мосгаз. Новое дело майора Черкасова / Формула мести / Сезон: 6 / Серии: 1-8 из 8 [2019 HDTVRip-AVC] bober100 Скачать
2 | 0

28-11-2019 20:33  

Отключить всю рекламу на сайте

    Дорогой пользователь! Огромная просьба, поблагодарите релизера, оцените раздачу и оставьте свои комментарий, если Вы скачали Мосгаз. Новое дело майора Черкасова через торрент бесплатно! Внесите свою лепту в развитие PiratBit!
    Комментировать посты могут только пользователи прошедшие не сложную регистрацию
    Показать сообщения:    

    Мосгаз. Новое дело майора Черкасова через торрент
    Скачать бесплатно Мосгаз. Новое дело майора Черкасова
    Мосгаз. Новое дело майора Черкасова скачать торрент
    Мосгаз. Новое дело майора Черкасова смотреть онлайн
    Cкачать фильм Мосгаз. Новое дело майора Черкасова бесплатно
    Мосгаз. Новое дело майора Черкасова скачать торрент в хорошем качестве
    Мосгаз. Новое дело майора Черкасова смотреть онлайн бесплатно в хорошем качестве


    Вы не можете начинать темы
    Вы не можете отвечать на сообщения
    Вы не можете редактировать свои сообщения
    Вы не можете удалять свои сообщения
    Вы не можете голосовать в опросах
    Вы не можете прикреплять файлы к сообщениям
    Вы можете скачивать файлы