Ссылка на приватное зеркало нашего сайта всего за 1$. Внимание количество ограничено!!!

2 сезон

iTunes

1 сезон

1

2 сезон

2 сезон

iTunes

1 сезон

RePack

30

Новинка

ВАЖНО

ИГРА 18+

pack

RePack

MK11
pack

Забери бонус

RePack

jed

!!Акция!!

Alien_Rage

RePack

fifa19

RePack

Assassins Creed: Odyssey

RePack

NEED FOR SPEED™ PAYBACK

4 сезон

9 сезон

Бесстыжие 9 сезон

Все сериалы

все сериалы на PB.wtf

RePack

FAR CRY 5
  

Кенгуру Джекпот / Kangaroo Jack (Дэвид МакНалли) [2003, комедия, криминал, приключения, WEB-DL 1080p] DUB + MVO + AVO - KORSAR pb.wtf

Кенгуру Джекпот через торрент pb.wtf

Размер: 8.3 GB | Добавлен: 1 год 1 мес. назад | Торрент скачан:31 раз
Скачать  

21-10-2019 20:17 Кенгуру Джекпот Скачать торрент  

Кенгуру Джекпот / Kangaroo Jack
Год выпуска: 2003
Страна: США , Австралия
Жанр: Комедия, криминал, приключения
Продолжительность: 01:29:04
Перевод: Дублированный, профессиональный многоголосый, авторский одноголосый
Субтитры: Русские, английские, украинские
Режиссёр: Дэвид МакНалли
В ролях: Джерри О`Коннелл, Энтони Андерсон, Эстелла Уоррен, Кристофер Уокен, Мартон Чокаш, Дайан Кэннон, Майкл Шеннон, Билл Хантер, Дэвид Нгумбуджарра, Марк Селлито, Дэмиен Фотиу, Кристофер Бэйкер, Райан Гибсон, Денис Робертс, Крис Салливан
Описание: Музыкант и его лучший друг, Нью-Йоркский дизайнер причесок, оказываются вовлеченными в делишки мафии. Они вынуждены отправиться в Австралию, чтобы передать там 50 тысяч долларов. Но простая на вид задача превращается в настоящее испытание, когда некое неблагоразумное кенгуру вместе с их денежками пускается в бега.

rating

Качество: WEB-DL 1080p
Формат: MKV
Видео: MPEG-4 AVC, 11100 Кбит/сек, 1920x800, 23.976 Кадр/сек
Аудио 1: Russian: AC3, 6 ch, 384 Кбит/сек - DUB, Мосфильм-Мастер
Аудио 2: Russian: AC3, 6 ch, 448 Кбит/сек - MVO
Аудио 3: Russian: AC3, 6 ch, 448 Кбит/сек - AVO, Е. Рудой
Аудио 4: English: AC3, 6 ch, 448 Кбит/сек - Оригинал, DVD
Аудио 5: English: EAC3, 2 ch, 224 Кбит/сек - Оригинал, WEB

Релиз от:


Общее
Уникальный идентификатор : 202000754402769901696667332516693088872 (0x97F7EE1F9370E8C88EB35D40768F1A68)
Полное имя : Кенгуру.Джекпот.2003.WEB-DL.1080p.mkv
Формат : Matroska
Версия формата : Version 2
Размер файла : 8,30 Гбайт
Продолжительность : 1 ч. 29 м.
Режим общего битрейта : Переменный
Общий поток : 13,3 Мбит/сек
Дата кодирования : UTC 2018-06-27 13:49:29
Программа кодирования : mkvmerge v5.8.0 ('No Sleep / Pillow') built on Sep 2 2012 15:37:04
Библиотека кодирования : libebml v1.2.3 + libmatroska v1.3.0

Видео
Идентификатор : 1
Формат : AVC
Формат/Информация : Advanced Video Codec
Профиль формата : High@L4
Настройки формата : CABAC / 4 Ref Frames
Параметр CABAC формата : Да
Параметр RefFrames формата : 4 кадра
Идентификатор кодека : V_MPEG4/ISO/AVC
Продолжительность : 1 ч. 29 м.
Вид битрейта : Переменный
Битрейт : 11,1 Мбит/сек
Максимальный битрейт : 15,0 Мбит/сек
Ширина : 1920 пикселей
Высота : 800 пикселей
Соотношение сторон : 2,40:1
Режим частоты кадров : Постоянный
Частота кадров : 23,976 (24000/1001) кадра/сек
Цветовое пространство : YUV
Субдискретизация насыщенности : 4:2:0
Битовая глубина : 8 бит
Тип развёртки : Прогрессивная
Бит/(Пиксели*Кадры) : 0.302
Размер потока : 6,92 Гбайт (83%)
Библиотека кодирования : x264 core 148 r2623 d5b2374
Настройки программы : cabac=1 / ref=4 / deblock=1:-1:-1 / analyse=0x3:0x133 / me=umh / subme=9 / psy=1 / psy_rd=1.00:0.15 / mixed_ref=1 / me_range=24 / chroma_me=1 / trellis=2 / 8x8dct=1 / cqm=0 / deadzone=21,11 / fast_pskip=1 / chroma_qp_offset=-3 / threads=25 / lookahead_threads=4 / sliced_threads=0 / nr=150 / decimate=1 / interlaced=0 / bluray_compat=0 / constrained_intra=0 / bframes=8 / b_pyramid=2 / b_adapt=2 / b_bias=0 / direct=3 / weightb=1 / open_gop=0 / weightp=2 / keyint=120 / keyint_min=61 / scenecut=0 / intra_refresh=0 / rc_lookahead=120 / rc=crf / mbtree=1 / crf=18.0 / qcomp=0.60 / qpmin=0 / qpmax=69 / qpstep=4 / vbv_maxrate=15000 / vbv_bufsize=31250 / crf_max=0.0 / nal_hrd=vbr / filler=0 / ip_ratio=1.40 / aq=3:1.00
Язык : English
Default : Да
Forced : Нет
Цветовой диапазон : Limited
Основные цвета : BT.709
Характеристики трансфера : BT.709
Коэффициенты матрицы : BT.709

Аудио #1
Идентификатор : 2
Формат : AC-3
Формат/Информация : Audio Coding 3
Идентификатор кодека : A_AC3
Продолжительность : 1 ч. 29 м.
Вид битрейта : Постоянный
Битрейт : 384 Кбит/сек
Каналы : 6 каналов
Расположение каналов : Front: L C R, Side: L R, LFE
Частота : 48,0 КГц
Частота кадров : 31,250 кадров/сек (1536 SPF)
Битовая глубина : 16 бит
Метод сжатия : С потерями
Размер потока : 245 Мбайт (3%)
Заголовок : DUB | Мосфильм-Мастер
Язык : Russian
По умолчанию : Да
Принудительно : Нет

Аудио #2
Идентификатор : 3
Формат : AC-3
Формат/Информация : Audio Coding 3
Идентификатор кодека : A_AC3
Продолжительность : 1 ч. 29 м.
Вид битрейта : Постоянный
Битрейт : 448 Кбит/сек
Каналы : 6 каналов
Расположение каналов : Front: L C R, Side: L R, LFE
Частота : 48,0 КГц
Частота кадров : 31,250 кадров/сек (1536 SPF)
Битовая глубина : 16 бит
Метод сжатия : С потерями
Размер потока : 285 Мбайт (3%)
Заголовок : MVO
Язык : Russian
По умолчанию : Нет
Принудительно : Нет

Аудио #3
Идентификатор : 4
Формат : AC-3
Формат/Информация : Audio Coding 3
Идентификатор кодека : A_AC3
Продолжительность : 1 ч. 29 м.
Вид битрейта : Постоянный
Битрейт : 448 Кбит/сек
Каналы : 6 каналов
Расположение каналов : Front: L C R, Side: L R, LFE
Частота : 48,0 КГц
Частота кадров : 31,250 кадров/сек (1536 SPF)
Битовая глубина : 16 бит
Метод сжатия : С потерями
Размер потока : 285 Мбайт (3%)
Заголовок : AVO | Е. Рудой
Язык : Russian
По умолчанию : Нет
Принудительно : Нет

Аудио #4
Идентификатор : 5
Формат : AC-3
Формат/Информация : Audio Coding 3
Идентификатор кодека : A_AC3
Продолжительность : 1 ч. 29 м.
Вид битрейта : Постоянный
Битрейт : 448 Кбит/сек
Каналы : 6 каналов
Расположение каналов : Front: L C R, Side: L R, LFE
Частота : 48,0 КГц
Частота кадров : 31,250 кадров/сек (1536 SPF)
Битовая глубина : 16 бит
Метод сжатия : С потерями
Размер потока : 285 Мбайт (3%)
Заголовок : Original | 5.1
Язык : English
По умолчанию : Нет
Принудительно : Нет

Аудио #5
Идентификатор : 6
Формат : E-AC-3
Формат/Информация : Enhanced Audio Coding 3
Идентификатор кодека : A_EAC3
Продолжительность : 1 ч. 29 м.
Вид битрейта : Постоянный
Битрейт : 224 Кбит/сек
Каналы : 2 канала
Расположение каналов : Front: L R
Частота : 48,0 КГц
Частота кадров : 187,500 кадров/сек (256 SPF)
Метод сжатия : С потерями
Размер потока : 143 Мбайт (2%)
Заголовок : Original | 2.0
Язык : English
По умолчанию : Нет
Принудительно : Нет

Текст #1
Идентификатор : 7
Формат : UTF-8
Идентификатор кодека : S_TEXT/UTF8
Идентификатор кодека/Информация : UTF-8 Plain Text
Заголовок : 1
Язык : Russian
По умолчанию : Нет
Принудительно : Нет

Текст #2
Идентификатор : 8
Формат : UTF-8
Идентификатор кодека : S_TEXT/UTF8
Идентификатор кодека/Информация : UTF-8 Plain Text
Заголовок : 2
Язык : Russian
По умолчанию : Нет
Принудительно : Нет

Текст #3
Идентификатор : 9
Формат : UTF-8
Идентификатор кодека : S_TEXT/UTF8
Идентификатор кодека/Информация : UTF-8 Plain Text
Заголовок : 1
Язык : English
По умолчанию : Нет
Принудительно : Нет

Текст #4
Идентификатор : 10
Формат : UTF-8
Идентификатор кодека : S_TEXT/UTF8
Идентификатор кодека/Информация : UTF-8 Plain Text
Заголовок : 2
Язык : English
По умолчанию : Нет
Принудительно : Нет

Текст #5
Идентификатор : 11
Формат : UTF-8
Идентификатор кодека : S_TEXT/UTF8
Идентификатор кодека/Информация : UTF-8 Plain Text
Заголовок : SDH
Язык : English
По умолчанию : Нет
Принудительно : Нет

Текст #6
Идентификатор : 12
Формат : UTF-8
Идентификатор кодека : S_TEXT/UTF8
Идентификатор кодека/Информация : UTF-8 Plain Text
Язык : Ukrainian
По умолчанию : Нет
Принудительно : Нет

Меню
00:00:00.000 : en:Studio logos
00:00:44.000 : en:Opening Credits
00:01:07.000 : en:Anna meets Sal, beach
00:03:33.000 : en:Opening credits
00:07:07.000 : en:Louis & Charlie go off to deliver TVs, street
00:10:15.000 : en:Sal is angry with Louis & Charlie, Sal's house
00:13:36.000 : en:Charlie & Louis travel to Australia, plane
00:16:26.000 : en:Charlie & Louis arrive in Australia, Sydney airport
00:18:41.000 : en:Charlie & Louis search for Mr. Smith's place, Coober Pedy
00:22:33.000 : en:Charlie & Louis follow Kangaroo Jack, Coober Pedy
00:26:31.000 : en:Charlie & Louis make plan to get money back from Kangaroo Jack, jungle
00:27:21.000 : en:Charlie & Louis arrive in Alice Springs, bar
00:30:55.000 : en:Louis asks Jessie for help finding Kangaroo Jack, wildlife foundation
00:34:07.000 : en:Charlie & Louis accept Blue's help to find Kangaroo Jack, bar
00:38:20.000 : en:Charlie tries to save plan from crashing, field
00:41:26.000 : en:Mr Smith looks for Charlie & Louis, bar
00:42:53.000 : en:Charlie & Louis search for Jessie, desert
00:46:32.000 : en:Charlie & Louis finally meet Jessie, desert
00:49:53.000 : en:Mr Smith asks Blue about Charlie & Louis, desert
00:51:56.000 : en:Charlie & Louis & Jessie begin search for Kangaroo Jack, desert
00:54:17.000 : en:Charlie & Louis & Jessie make plan to capture Kangaroo Jack, desert
00:58:06.000 : en:Charlie & Louis & Jessie enjoy the waterfall in the desert, waterfall
01:01:28.000 : en:Mr Smith asks Charlie about his money, desert
01:03:37.000 : en:Mr Smith & Jessie go look for Kangaroo Jack, desert
01:08:15.000 : en:Mr Smith gets into a fight with Frankie, Owen Spring
01:11:11.000 : en:Frankie follows Charlie, desert
01:15:22.000 : en:Frankie tries to kill Charlie, desert
01:19:29.000 : en:Charlie finally finds the Kangaroo, desert
01:21:40.000 : en:Charlie & Jessie & Louis sail & relax, ship
01:23:53.000 : en:End credits
pb.wtf



Скачать Кенгуру Джекпот через торрент https://i5.imageban.ru/out/2019/10/21/c3cb70cf667a4e1eb9ee524ee650759c.png Скачать фильм Кенгуру Джекпот через торрент бесплантно в хорошем качестве Описание: Музыкант и его лучший друг, Нью-Йоркский дизайнер причесок, оказываются вовлеченными в делишки мафии. Они вынуждены отправиться в ... 10 10 4
Info! Золотая раздача, скачанное не засчитывается.
Торрент: Зарегистрирован [2019-10-21 20:17] · скачан: 31 раз
Статус: √ проверено
Размер: 8.3 GB
Как cкачать? Как скачать Кенгуру Джекпот через торрент | qTorrent

28-11-2019 20:33  

Отключить всю рекламу на сайте

    Дорогой пользователь! Огромная просьба, поблагодарите релизера, оцените раздачу и оставьте свои комментарий, если Вы скачали Кенгуру Джекпот через торрент бесплатно! Внесите свою лепту в развитие PiratBit!
    Комментировать посты могут только пользователи прошедшие не сложную регистрацию
    Показать сообщения:    

    Кенгуру Джекпот через торрент
    Скачать бесплатно Кенгуру Джекпот
    Кенгуру Джекпот скачать торрент
    Кенгуру Джекпот смотреть онлайн
    Cкачать фильм Кенгуру Джекпот бесплатно
    Кенгуру Джекпот скачать торрент в хорошем качестве
    Кенгуру Джекпот смотреть онлайн бесплатно в хорошем качестве


    Вы не можете начинать темы
    Вы не можете отвечать на сообщения
    Вы не можете редактировать свои сообщения
    Вы не можете удалять свои сообщения
    Вы не можете голосовать в опросах
    Вы не можете прикреплять файлы к сообщениям
    Вы можете скачивать файлы