Ссылка на приватное зеркало нашего сайта всего за 1$. Внимание количество ограничено!!!

2 сезон

iTunes

1 сезон

1

iTunes

iTunes

iTunes

1 сезон

RePack

30

ИГРА 18+

pack

ВАЖНО

!!Акция!!

Alien_RageХит недели

RePack

MK11
pack

Забери бонус

RePack

jed

!!Акция!!

Alien_Rage

RePack

fifa19

RePack

Assassins Creed: Odyssey

RePack

NEED FOR SPEED™ PAYBACK

4 сезон

9 сезон

Бесстыжие 9 сезон

Все сериалы

все сериалы на PB.wtf

RePack

FAR CRY 5
  

Екатерина. Самозванцы / Сезон: 3 / Серии: 1-16 из 16 (Дмитрий Иосифов) [2019, История, драма, биография, HDTVRip] pb.wtf

Екатерина. Самозванцы через торрент pb.wtf

Раздают: 9 [ 8 KB/s ] Качают: 2 [ 0 KB/s ]
Размер: 9.44 GB | Добавлен: 11 мес. назад | Торрент скачан:182 раза
Скачать  

22-10-2019 01:28 Екатерина. Самозванцы Скачать торрент  

Екатерина. Самозванцы
Год выпуска: 2019
Страна: Россия
Жанр: История, драма, биография
Продолжительность: ~ 00:48:00
Субтитры: отсутствуют

Режиссер: Дмитрий Иосифов



В ролях: Марина Александрова (I), Владимир Яглыч, Павел Табаков, Алина Томников, Сергей Колтаков, Александр Ткачев, Станислав Стрелков, Михаил Горевой, Ангелина Стречина, Сергей Марин

Описание: 1774 год, правление Екатерины оказалось под большой угрозой с четырех сторон. Идет война с Турцией, которая может обернуться для России либо удачным миром, либо сокрушительным поражением. Кроме того, в Париже в руках беглых поляков и французских авантюристов оказывается важный козырь против Екатерины — Елизавета Тараканова, самозваная дочь Елизаветы Петровны. На юге России разгорается крестьянское восстание Емельяна Пугачева — еще одного самозванца, объявившего себя Петром III. Наконец, опасность зреет и во дворце: Панин просчитывает варианты передачи власти от Екатерины Павлу. От решений императрицы зависит судьба России.

Качество: HDTVRip
Формат: AVI

Видео: XviD, 1600 Кбит/с, 720x400
Аудио: 48.0 kHz, AC3 Dolby Digital, 2/0 (L,R) ch, ~ 192 kbps
скриншот  скриншот  скриншот  скриншот  скриншот  

Общее
Полное имя : D:\Ekaterina.S03.(2019).HDTVRip.Files-x\01.Ekaterina.Samozvancy.(2019).HDTVRip.Files-x.avi
Формат : AVI
Формат/Информация : Audio Video Interleave
Размер файла : 618 Мбайт
Продолжительность : 47 м. 56 с.
Общий поток : 1801 Кбит/сек
Программа кодирования : VirtualDubMod 1.5.10.3 | www.virtualdub-fr.org || (build 2550/release)
Библиотека кодирования : VirtualDubMod build 2550/release

Видео
Идентификатор : 0
Формат : MPEG-4 Visual
Профиль формата : Advanced Simple@L5
Параметр BVOP формата : 1
Параметр QPel формата : Нет
Параметр GMC формата : Без точки перехода
Параметр матрицы формата : Выборочная
Идентификатор кодека : XVID
Идентификатор кодека/Подсказка : XviD
Продолжительность : 47 м. 56 с.
Битрейт : 1600 Кбит/сек
Ширина : 720 пикселей
Высота : 400 пикселей
Соотношение сторон : 16:9
Частота кадров : 25,000 кадров/сек
Цветовое пространство : YUV
Субдискретизация насыщенности : 4:2:0
Битовая глубина : 8 бит
Тип развёртки : Прогрессивная
Метод сжатия : С потерями
Бит/(Пиксели*Кадры) : 0.212
Размер потока : 524 Мбайт (85%)
Библиотека кодирования : XviD 73

Аудио
Идентификатор : 1
Формат : AC-3
Формат/Информация : Audio Coding 3
Расширение режима : CM (complete main)
Параметр Endianness формата : Big
Идентификатор кодека : 2000
Продолжительность : 47 м. 56 с.
Вид битрейта : Постоянный
Битрейт : 192 Кбит/сек
Каналы : 2 канала
Расположение каналов : Front: L R
Частота : 48,0 КГц
Частота кадров : 31,250 кадров/сек (1536 spf)
Метод сжатия : С потерями
Размер потока : 65,8 Мбайт (11%)
Выравнивание : Разделение по промежуткам

При каждом добавлении создаётся новый торрент. Чтобы начать докачку новой серии, пользователям необходимо сделать следующее:
- остановить скачивание;
- удалить старый торрент у себя из клиента (старые серии удалять не надо);
- скачать новый торрент и запустить его у себя в клиенте вместо старого, при этом указать клиенту путь в старую папку, куда и должно происходить скачивание новых серий.
pb.wtf



Скачать Екатерина. Самозванцы через торрент https://i89.fastpic.ru/big/2019/1019/14/9867a7c64b771c782cd47680400ac614.jpg Скачать фильм Екатерина. Самозванцы через торрент бесплантно в хорошем качестве Описание: 1774 год, правление Екатерины оказалось под большой угрозой с четырех сторон. Идет война с Турцией, которая может обернуться для ... 9.9 10 9
Торрент: Зарегистрирован [2019-11-01 09:19] · скачан: 182 раз
Статус: √ проверено
Размер: 9.44 GB
Как cкачать? Как скачать Екатерина. Самозванцы через торрент | qTorrent

% Раздел Тема Автор DL S | L
Наши сериалы [ 11.49 GB ] Екатерина. Самозванцы / Сезон: 3 / Серии: 1-16 из 16 [2019 История биография HDTVRip-AVC] bober100 Скачать
2 | 0
Наши сериалы [ 40.08 GB ] Екатерина. Самозванцы / Сезон: 3 / Серии: 1-16 из 16 [2019 История биография HDTV 1080i] bober100 Скачать
1 | 0
Наши сериалы [ 9.37 GB ] Екатерина. Самозванцы / Сезон: 3 / Серии: 1-16 из 16 [2019 История биография SATRip] bober100 Скачать
1 | 0
Наши сериалы [ 8.92 GB ] Екатерина. Самозванцы / Сезон: 3 / Серии: 1-16 из 16 [2019 история биография SATRip-AVC] aleksan55 Скачать
2 | 0
Наши сериалы [ 19.35 GB ] Екатерина. Самозванцы / Сезон: 3 / Серии: 1-16 из 16 [2019 История биография HDTVRip 720p] bober100 Скачать
1 | 0

28-11-2019 20:33  

Отключить всю рекламу на сайте

    Дорогой пользователь! Огромная просьба, поблагодарите релизера, оцените раздачу и оставьте свои комментарий, если Вы скачали Екатерина. Самозванцы через торрент бесплатно! Внесите свою лепту в развитие PiratBit!
    Комментировать посты могут только пользователи прошедшие не сложную регистрацию
    Показать сообщения:    

    Екатерина. Самозванцы через торрент
    Скачать бесплатно Екатерина. Самозванцы
    Екатерина. Самозванцы скачать торрент
    Екатерина. Самозванцы смотреть онлайн
    Cкачать фильм Екатерина. Самозванцы бесплатно
    Екатерина. Самозванцы скачать торрент в хорошем качестве
    Екатерина. Самозванцы смотреть онлайн бесплатно в хорошем качестве


    Вы не можете начинать темы
    Вы не можете отвечать на сообщения
    Вы не можете редактировать свои сообщения
    Вы не можете удалять свои сообщения
    Вы не можете голосовать в опросах
    Вы не можете прикреплять файлы к сообщениям
    Вы можете скачивать файлы