Ссылка на приватное зеркало нашего сайта всего за 1$. Внимание количество ограничено!!!

2 сезон

iTunes

1 сезон

1

iTunes

iTunes

iTunes

1 сезон

RePack

30

ИГРА 18+

pack

ВАЖНО

!!Акция!!

Alien_RageХит недели

RePack

MK11
pack

Забери бонус

RePack

jed

!!Акция!!

Alien_Rage

RePack

fifa19

RePack

Assassins Creed: Odyssey

RePack

NEED FOR SPEED™ PAYBACK

4 сезон

9 сезон

Бесстыжие 9 сезон

Все сериалы

все сериалы на PB.wtf

RePack

FAR CRY 5
  

Мосгаз. Новое дело майора Черкасова / Формула мести / Сезон: 6 / Серии: 1-8 из 8 (Сергей Коротаев) [2019, Детектив, триллер, SATRip] pb.wtf

Мосгаз. Новое дело майора Черкасова через торрент pb.wtf

Раздают: 5 [ 20 KB/s ]
Размер: 4.69 GB | Добавлен: 11 мес. назад | Торрент скачан:138 раз
Скачать  

22-10-2019 16:43 Мосгаз. Новое дело майора Черкасова Скачать торрент  

Мосгаз. Новое дело майора Черкасова / Формула мести
Год выпуска: 2019
Страна: Россия
Жанр: Детектив, триллер
Продолжительность: ~ 00:50:00
Перевод: Не требуется
Субтитры: отсутствуют

Режиссер: Сергей Коротаев

rating

В ролях: Андрей Смоляков, Марина Александрова, Александр Лазарев (младший), Евгения Крюкова, Дарья Урсуляк, Светлана Немоляева, Алексей Бардуков, Юрий Чурсин, Александр Голубев, Сергей Гармаш, Дмитрий Астрахан, Софья Евстигнеева, Алексей Барабаш, Сергей Степанченко, Александра Куликова, Евгений Перевалов, Галина Бокашевская, Даниэла Стоянович, Лариса Удовиченко, Александр Дробитько

Описание: Шестой сезон сериала о майоре милиции Иване Черкасове из цикла криминальных расследований, в который входят сериалы "Мосгаз", "Палач", "Паук", "Шакал", "Операция Сатана".
1977 год. Иван Петрович Черкасов, как всегда, занят расследованием сложного и запутанного дела. С крыши сбросили студента архитектурного института. Его мать покончила с собой. Следы ведут на ипподром, где погиб жокей. И на окраине находят труп одного из служителей ипподрома. Подозреваемые – жители элитного дома, деятели культуры. Среди них и певец, и модельер, и знаменитые актеры, часто посещающие ипподром. Черкасов догадывается, что преступник – один из них. Иван Петрович довольно быстро выходит на исполнителей убийств, но есть еще и некий организатор преступлений, вычислить которого никак не удается.

Качество: SATRip
Формат: AVI

Видео: XviD, ~ 1540 Кбит/с, 720x400
Аудио: MP3, 2 ch, 192 Кбит/с
скриншот  скриншот  скриншот  

Общее
Полное имя : D:\Mosgaz.Novoe.delo.majora.Cherkasova.2019.XviD.SATRip.25Kuzmich\Mosgaz.Novoe.delo.majora.Cherkasova.e01.XviD.SATRip.25Kuzmich.avi
Формат : AVI
Формат/Информация : Audio Video Interleave
Размер файла : 600 Мбайт
Продолжительность : 48 м. 15 с.
Общий поток : 1738 Кбит/сек
Программа кодирования : VirtualDubMod 1.5.10.3 | www.virtualdub-fr.org || (build 2550/release)
Библиотека кодирования : VirtualDubMod build 2550/release

Видео
Идентификатор : 0
Формат : MPEG-4 Visual
Профиль формата : Advanced Simple@L5
Параметр BVOP формата : 1
Параметр QPel формата : Нет
Параметр GMC формата : Без точки перехода
Параметр матрицы формата : Default (MPEG)
Идентификатор кодека : XVID
Идентификатор кодека/Подсказка : XviD
Продолжительность : 48 м. 15 с.
Битрейт : 1537 Кбит/сек
Ширина : 720 пикселей
Высота : 400 пикселей
Соотношение сторон : 16:9
Частота кадров : 25,000 кадров/сек
Цветовое пространство : YUV
Субдискретизация насыщенности : 4:2:0
Битовая глубина : 8 бит
Тип развёртки : Прогрессивная
Метод сжатия : С потерями
Бит/(Пиксели*Кадры) : 0.213
Размер потока : 530 Мбайт (88%)
Библиотека кодирования : XviD 73

Аудио
Идентификатор : 1
Формат : MPEG Audio
Версия формата : Version 1
Профиль формата : Layer 3
Режим : Joint stereo
Расширение режима : MS Stereo
Идентификатор кодека : 55
Идентификатор кодека/Подсказка : MP3
Продолжительность : 48 м. 15 с.
Вид битрейта : Постоянный
Битрейт : 192 Кбит/сек
Каналы : 2 канала
Частота : 48,0 КГц
Метод сжатия : С потерями
Размер потока : 66,3 Мбайт (11%)
Выравнивание : Соединение по промежуткам
Продолжительность промежутка : 40 мс. (1,00 видеокадр)
Время предзагрузки промежутка : 504 мс.
Библиотека кодирования : LAME3.99r
Настройки программы : -m j -V 4 -q 2 -lowpass 18.6 -b 192

Раздача ведётся путём добавления новых серий, при каждом добавлении создаётся новый торрент. Чтобы начать докачку новой серии, пользователям необходимо сделать следующее:

- Остановить скачивание.
- Удалить старый торрент у себя из клиента (старые серии удалять не надо).
- Скачать новый торрент и запустить его у себя в клиенте вместо старого, при этом указать клиенту путь в старую папку куда и должно происходить скачивание новых серий.

Ваш клиент при этом должен произвести хеширование (проверку) старой папки (если не производит сам - помогите ему сделать это), и будет докачивать только те серии которых у вас ещё нет. Старые серии при этом не удаляются, а продолжают раздаваться!
Если вы уже удалили старые серии, то предотвратить повторную закачку старых серий можно, отжав галочку в соответствующих местах при запуске нового торрента. По возможности, желательно не удалять старые серии как можно дольше, чтобы релизер не столько продолжал раздавать старые серии, а смог сконцентрироваться на новых.
pb.wtf



Скачать Мосгаз. Новое дело майора Черкасова через торрент http://b.radikal.ru/b33/1910/88/170ce828213d.jpg Скачать фильм Мосгаз. Новое дело майора Черкасова через торрент бесплантно в хорошем качестве Описание: Шестой сезон сериала о майоре милиции Иване Черкасове из цикла криминальных расследований, в который входят сериалы "Мосгаз", ... 9.5 10 21
Торрент: Зарегистрирован [2019-10-24 16:51] · скачан: 138 раз
Статус: √ проверено
Размер: 4.69 GB
Как cкачать? Как скачать Мосгаз. Новое дело майора Черкасова через торрент | qTorrent

% Раздел Тема Автор DL S | L
Наши сериалы [ 4.79 GB ] Мосгаз. Новое дело майора Черкасова / Формула мести / Сезон: 6 / Серии: 1-8 из 8 [2019 HDTVRip] bober100 Скачать
2 | 1
Наши сериалы [ 9.92 GB ] Мосгаз. Новое дело майора Черкасова / Формула мести / Сезон: 6 / Серии: 1-8 из 8 [2019 HDTVRip 720p] bober100 Скачать
11 | 2
Наши сериалы [ 5.89 GB ] Мосгаз. Новое дело майора Черкасова / Формула мести / Сезон: 6 / Серии: 1-8 из 8 [2019 HDTVRip-AVC] bober100 Скачать
9 | 1
Наши сериалы [ 19.19 GB ] Мосгаз. Новое дело майора Черкасова / Формула мести / Сезон: 6 / Серии: 1-8 из 8 [2019 HDTV 1080i] bober100 Скачать
5 | 0

28-11-2019 20:33  

Отключить всю рекламу на сайте

    Дорогой пользователь! Огромная просьба, поблагодарите релизера, оцените раздачу и оставьте свои комментарий, если Вы скачали Мосгаз. Новое дело майора Черкасова через торрент бесплатно! Внесите свою лепту в развитие PiratBit!
    Комментировать посты могут только пользователи прошедшие не сложную регистрацию
    Показать сообщения:    

    Мосгаз. Новое дело майора Черкасова через торрент
    Скачать бесплатно Мосгаз. Новое дело майора Черкасова
    Мосгаз. Новое дело майора Черкасова скачать торрент
    Мосгаз. Новое дело майора Черкасова смотреть онлайн
    Cкачать фильм Мосгаз. Новое дело майора Черкасова бесплатно
    Мосгаз. Новое дело майора Черкасова скачать торрент в хорошем качестве
    Мосгаз. Новое дело майора Черкасова смотреть онлайн бесплатно в хорошем качестве


    Вы не можете начинать темы
    Вы не можете отвечать на сообщения
    Вы не можете редактировать свои сообщения
    Вы не можете удалять свои сообщения
    Вы не можете голосовать в опросах
    Вы не можете прикреплять файлы к сообщениям
    Вы можете скачивать файлы