Ссылка на приватное зеркало нашего сайта всего за 1$. Внимание количество ограничено!!!

2 сезон

iTunes

1 сезон

1

2 сезон

2 сезон

iTunes

1 сезон

RePack

30

Ultimate

ВАЖНО

ИГРА 18+

pack

RePack

MK11
pack

Забери бонус

RePack

jed

!!Акция!!

Alien_Rage

RePack

fifa19

RePack

Assassins Creed: Odyssey

RePack

NEED FOR SPEED™ PAYBACK

4 сезон

9 сезон

Бесстыжие 9 сезон

Все сериалы

все сериалы на PB.wtf

RePack

FAR CRY 5
  

Yesterday / Yesterday (Дэнни Бойл) [2019, Мюзикл, фэнтези, мелодрама, комедия, музыка, BD Remux 1080p] DUB [Лицензия] pb.wtf

Yesterday через торрент pb.wtf

Размер: 28.03 GB | Добавлен: 1 год 1 мес. назад | Торрент скачан:12 раз
Скачать  

23-10-2019 01:07 Yesterday Скачать торрент  

Yesterday / Yesterday
Год выпуска: 2019
Страна: Великобритания, Россия, Китай
Жанр: Мюзикл, фэнтези, мелодрама, комедия, музыка
Продолжительность: 01:56:14
Перевод: Дублированный | Лицензия
Субтитры: Русские (Forced, songs, 2 x full), английские

Режиссер: Дэнни Бойл

rating

В ролях: Химеш Патель, Лили Джеймс, Софи Ди Мартино, Эллиз Шаппелль, Мира Сайал, Гарри Мишель, Винсент Франклин, Джоэль Фрай, Майкл Киванука, Карма Суд

Описание: Еще месяц назад Джек был обычным неудачником. Теперь он суперзвезда, миллионы людей слушают его песни, билеты на концерты раскупаются за секунду. В чем секрет? Все просто. Джек - единственный человек в мире, кто помнит о существовании The Beatles.

Качество: BD Remux 1080p
Формат: MKV

Видео: MPEG-4 AVC, 1920x1080, 30.1 Mbit/s, 23.976 fps
Аудио#1: 48 kHz, AC3, 5.1, 640 Kbps | Лицензия | RUS |
Аудио#2: 48 kHz, TrueHD, 7.1, 3272 Kbps | Оригинал | ENG |
Аудио#3: 48 kHz, AC3, 5.1, 448 Kbps | Оригинал | ENG |
скриншот  скриншот  скриншот  скриншот  скриншот  

General
Unique ID : 327477154492074845087623717417609651637 (0xF65DCE488254F2E6A16C30986FF4E5B5)
Complete name : D:Video111Yesterday.2019.Lic.BDREMUX.1080p.seleZen.mkv
Format : Matroska
Format version : Version 4
File size : 28.0 GiB
Duration : 1 h 56 min
Overall bit rate mode : Variable
Overall bit rate : 34.5 Mb/s
Movie name : Yesterday 2019 from селезень
Encoded date : UTC 2019-10-24 02:05:48
Writing application : mkvmerge v22.0.0 ('At The End Of The World') 64-bit
Writing library : libebml v1.3.5 + libmatroska v1.4.8

Video
ID : 1
Format : AVC
Format/Info : Advanced Video Codec
Format profile : High@L4.1
Format settings : CABAC / 4 Ref Frames
Format settings, CABAC : Yes
Format settings, Reference : 4 frames
Codec ID : V_MPEG4/ISO/AVC
Duration : 1 h 56 min
Bit rate mode : Variable
Bit rate : 30.1 Mb/s
Maximum bit rate : 33.0 Mb/s
Width : 1 920 pixels
Height : 1 080 pixels
Display aspect ratio : 16:9
Frame rate mode : Constant
Frame rate : 23.976 (24000/1001) FPS
Color space : YUV
Chroma subsampling : 4:2:0
Bit depth : 8 bits
Scan type : Progressive
Bits/(Pixel*Frame) : 0.605
Stream size : 24.4 GiB (87%)
Language : English
Default : Yes
Forced : No

Audio #1
ID : 2
Format : AC-3
Format/Info : Audio Coding 3
Commercial name : Dolby Digital
Codec ID : A_AC3
Duration : 1 h 56 min
Bit rate mode : Constant
Bit rate : 640 kb/s
Channel(s) : 6 channels
Channel layout : L R C LFE Ls Rs
Sampling rate : 48.0 kHz
Frame rate : 31.250 FPS (1536 SPF)
Bit depth : 16 bits
Compression mode : Lossy
Stream size : 532 MiB (2%)
Title : Dub [License]
Language : Russian
Service kind : Complete Main
Default : Yes
Forced : Yes

Audio #2
ID : 3
Format : MLP FBA 16-ch
Format/Info : Meridian Lossless Packing FBA with 16-channel presentation
Commercial name : Dolby TrueHD with Dolby Atmos
Codec ID : A_TRUEHD
Duration : 1 h 56 min
Bit rate mode : Variable
Bit rate : 3 272 kb/s
Maximum bit rate : 5 664 kb/s
Channel(s) : 8 channels
Channel layout : L R C LFE Ls Rs Lb Rb
Sampling rate : 48.0 kHz
Frame rate : 1 200.000 FPS (40 SPF)
Compression mode : Lossless
Stream size : 2.66 GiB (9%)
Title : Original
Language : English
Default : No
Forced : No
Number of dynamic objects : 11
Bed channel count : 1 channel
Bed channel configuration : LFE

Audio #3
ID : 4
Format : AC-3
Format/Info : Audio Coding 3
Commercial name : Dolby Digital
Codec ID : A_AC3
Duration : 1 h 56 min
Bit rate mode : Constant
Bit rate : 448 kb/s
Channel(s) : 6 channels
Channel layout : L R C LFE Ls Rs
Sampling rate : 48.0 kHz
Frame rate : 31.250 FPS (1536 SPF)
Bit depth : 16 bits
Compression mode : Lossy
Stream size : 372 MiB (1%)
Language : English
Service kind : Complete Main
Default : No
Forced : No

Text #1
ID : 5
Format : UTF-8
Codec ID : S_TEXT/UTF8
Codec ID/Info : UTF-8 Plain Text
Duration : 1 h 55 min
Bit rate : 0 b/s
Count of elements : 19
Stream size : 559 Bytes (0%)
Title : Forced
Language : Russian
Default : Yes
Forced : Yes

Text #2
ID : 6
Format : UTF-8
Codec ID : S_TEXT/UTF8
Codec ID/Info : UTF-8 Plain Text
Duration : 1 h 47 min
Bit rate : 13 b/s
Count of elements : 204
Stream size : 10.3 KiB (0%)
Title : Songs
Language : Russian
Default : No
Forced : No

Text #3
ID : 7
Format : UTF-8
Codec ID : S_TEXT/UTF8
Codec ID/Info : UTF-8 Plain Text
Duration : 1 h 55 min
Bit rate : 93 b/s
Count of elements : 1641
Stream size : 79.2 KiB (0%)
Title : Full [License]
Language : Russian
Default : No
Forced : No

Text #4
ID : 8
Format : UTF-8
Codec ID : S_TEXT/UTF8
Codec ID/Info : UTF-8 Plain Text
Duration : 1 h 51 min
Bit rate : 107 b/s
Count of elements : 2093
Stream size : 87.4 KiB (0%)
Title : Full [FOCS]
Language : Russian
Default : No
Forced : No

Text #5
ID : 9
Format : UTF-8
Codec ID : S_TEXT/UTF8
Codec ID/Info : UTF-8 Plain Text
Duration : 1 h 55 min
Bit rate : 79 b/s
Count of elements : 2244
Stream size : 67.1 KiB (0%)
Title : Full
Language : English
Default : No
Forced : No

Text #6
ID : 10
Format : UTF-8
Codec ID : S_TEXT/UTF8
Codec ID/Info : UTF-8 Plain Text
Duration : 1 h 55 min
Bit rate : 86 b/s
Count of elements : 2439
Stream size : 73.0 KiB (0%)
Title : SDH
Language : English
Default : No
Forced : No

Menu
00:00:00.000 : en:Chapter 01
00:06:16.668 : en:Chapter 02
00:11:19.679 : en:Chapter 03
00:16:13.097 : en:Chapter 04
00:21:28.287 : en:Chapter 05
00:27:04.540 : en:Chapter 06
00:33:31.885 : en:Chapter 07
00:38:55.083 : en:Chapter 08
00:45:53.250 : en:Chapter 09
00:48:17.061 : en:Chapter 10
00:56:24.339 : en:Chapter 11
01:03:47.490 : en:Chapter 12
01:09:16.486 : en:Chapter 13
01:14:17.078 : en:Chapter 14
01:19:04.615 : en:Chapter 15
01:24:10.587 : en:Chapter 16
01:31:51.923 : en:Chapter 17
01:36:00.588 : en:Chapter 18
01:40:03.247 : en:Chapter 19
01:46:51.947 : en:Chapter 20

pb.wtf



Скачать Yesterday через торрент https://img16.lostpic.net/2019/10/23/6b58a9501ee0282f581a2e633d705c9a.jpg Скачать фильм Yesterday через торрент бесплантно в хорошем качестве Описание: Еще месяц назад Джек был обычным неудачником. Теперь он суперзвезда, миллионы людей слушают его песни, билеты на концерты ... 10 10 3
Торрент: Зарегистрирован [2019-10-24 02:30] · скачан: 12 раз
Статус: √ проверено
Размер: 28.03 GB
Как cкачать? Как скачать Yesterday через торрент | qTorrent

% Раздел Тема Автор DL S | L
Progressive, Art-Rock (mp3) [ 137 MB ] Deaton LeMay Project - Day After Yesterday 2019 / MP3 / 320 kbps / Progressive-Rock bober100 Скачать
1 | 0
Ultra HD (UHD: 2K, 4K, 8K) — видео сверхвысокой чёткости [ 56.23 GB ] Yesterday / Yesterday [2019 музыка UHD BDRemux 2160p] DUB [] + AVO [C. Визгунов] sheker187 Скачать
1 | 0
Ultra HD (UHD: 2K, 4K, 8K) — видео сверхвысокой чёткости [ 11.82 GB ] Yesterday / Yesterday [2019 Мюзикл музыка UHD BDRip 2160p] DUB [] +AVO [С.Визгунов] bober100 Скачать
1 | 0
Фильмы 2019-2020 [DVDrip, WEB-DLRip, HDrip] (DUB, MVO) [ 747 MB ] Yesterday / Yesterday [2019 Мюзикл музыка BDRip-AVC от OlLanDGroup] DUB [ BD EUR] Skandar2019 Скачать
1 | 0
Фильмы 2019-2020 [DVDrip, WEB-DLRip, HDrip] (DUB, MVO) [ 1.46 GB ] Yesterday / Yesterday [2019 Мюзикл музыка BDRip-AVC от OlLanDGroup] DUB [ BD EUR] Skandar2019 Скачать
2 | 0
Фильмы 2019-2020 [DVDrip, WEB-DLRip, HDrip] (DUB, MVO) [ 2.18 GB ] Yesterday / Yesterday [2019 мюзикл музыка BDRip] - [] Twi7ter Скачать
11 | 0
Фильмы 2019-2020 [DVDrip, WEB-DLRip, HDrip] (DUB, MVO) [ 1.46 GB ] Yesterday / Yesterday [2019 мюзикл музыка BDRip] - [] Twi7ter Скачать
8 | 0

28-11-2019 20:33  

Отключить всю рекламу на сайте

    Дорогой пользователь! Огромная просьба, поблагодарите релизера, оцените раздачу и оставьте свои комментарий, если Вы скачали Yesterday через торрент бесплатно! Внесите свою лепту в развитие PiratBit!
    Комментировать посты могут только пользователи прошедшие не сложную регистрацию
    Показать сообщения:    

    Yesterday через торрент
    Скачать бесплатно Yesterday
    Yesterday скачать торрент
    Yesterday смотреть онлайн
    Cкачать фильм Yesterday бесплатно
    Yesterday скачать торрент в хорошем качестве
    Yesterday смотреть онлайн бесплатно в хорошем качестве


    Вы не можете начинать темы
    Вы не можете отвечать на сообщения
    Вы не можете редактировать свои сообщения
    Вы не можете удалять свои сообщения
    Вы не можете голосовать в опросах
    Вы не можете прикреплять файлы к сообщениям
    Вы можете скачивать файлы