Ссылка на приватное зеркало всего за 1$. Внимание количество ограничено!!!

OK

1+1

iTunes

мы

OK

1

WEB-DLRip

Джокер

Пифагор

Ведьмак / The Witcher сериал

iTunes

ПШазам

ОК

Оно 2

iTunes

30
pack

Вам бонус

ВАЖНО

!!Акция!!

Alien_RageХит недели

RePack

Resident Evil 21

ИГРА 18+

pack

RePack

jed

RePack

fifa19

RePack

Assassins Creed: Odyssey

RePack

NEED FOR SPEED™ PAYBACK

4 сезон

9 сезон

Бесстыжие 9 сезон

Все сериалы

все сериалы на PB.wtf

RePack

FAR CRY 5
  

Человек-паук: Вдали от дома / Spider-Man: Far from Home (Джон Уоттс) [2019, фантастика, боевик, приключения, UHD BDRemux 2160p] [Dolby Vision TV] DUB (rus, ukr) [iTunes] pb.wtf

Человек-паук: Вдали от дома через торрент pb.wtf

Размер: 51.75 GB | Добавлен: 3 мес. 4 д. назад | Торрент скачан:26 раз
Скачать  

23-10-2019 04:46 Человек-паук: Вдали от дома Скачать торрент  

Человек-паук: Вдали от дома / Spider-Man: Far from Home
Год выпуска: 2019
Страна: США, Columbia Pictures, Marvel Studios, Pascal Pictures
Жанр: фантастика, боевик, приключения
Продолжительность: 02:09:23
Перевод: Дублированный | Лицензия
Субтитры: Русские, украинские

Режиссер: Джон Уоттс

rating

В ролях: Том Холланд, Зендея, Энгаури Райс, Джон Фавро, Джейк Джилленхол, Сэмюэл Л. Джексон, Коби Смолдерс, Мариса Томей, Мартин Старр, Дж.К. Симмонс

Описание: Питер Паркер вместе с друзьями отправляется на летние каникулы в Европу. Однако отдохнуть приятелям вряд ли удастся - Питеру придется согласиться помочь Нику Фьюри раскрыть тайну существ, вызывающих стихийные бедствия и разрушения по всему континенту.

Качество: UHD BDRemux 2160p | Dolby Vision TV
Формат: MP4

Видео: HEVC HDR, 3840x2160 (16:9), 23.976 fps, 53.7 Mb/s (0.270 bit/pixel)
Аудио#1: 48 kHz, AC3, 5.1, 640 Kbps | Лицензия | RUS |
Аудио#2: 48 kHz, AC3, 2.0, 160 Kbps | iTunes | UKR |
Аудио#3: 48 kHz, AC3, 5.1, 640 Kbps | Оригинал | ENG |
Данный вид релизов (контейнер MP4) предназначен для встроенного в ТВ (соответственно, с поддержкой DV) плеер.
Т.Е. Можно использовать как USB flash/HDD, так и DLNA / Plex - подобные сервисы/программы. дополнительный-внешний плеер не обязателен.

Внимание!
На моделях LG 2016 возможны сюрпризы "через раз", 2017-2018 должно идти без сюрпризов )
скриншот  скриншот  скриншот  

скриншот  скриншот  скриншот  

General
Complete name : Spider.Man.Far.from.Home.2019.UHD.BDRemux.2160p.DV.IVA(RUS.UKR.ENG).ExKinoRay.mp4
Format : MPEG-4
Format profile : Base Media / Version 2
Codec ID : mp42 (mp42/isom/hev1/dby1)
File size : 51.7 GiB
Duration : 2 h 9 min
Overall bit rate : 57.2 Mb/s
Movie name : Spider-Man: Far from Home
Performer : Jon Watts
Performer/Sorted by : Jon Watts
Genre : Action & Adventure & Science Fiction
Description : Peter Parker and his friends go on a summer trip to Europe. However, they will hardly be able to rest - Peter will have to agree to help Nick Fury uncover the mystery of creatures that cause natural disasters and destruction throughout the continent.
Encoded date : UTC 2019-10-23 01:28:20
Tagged date : UTC 2019-10-23 02:08:20
Writing application : IVA.ExKinoRay
Cover : Yes
Title/Sort : Spider-Man: Far from Home
LongDescription : Peter Parker and his friends go on a summer trip to Europe. However, they will hardly be able to rest - Peter will have to agree to help Nick Fury uncover the mystery of creatures that cause natural disasters and destruction throughout the continent.

Video #1
ID : 1
Format : HEVC
Format/Info : High Efficiency Video Coding
Format profile : Main 10@L5.1@High
HDR format : SMPTE ST 2086, HDR10 compatible
Codec ID : hev1
Codec ID/Info : High Efficiency Video Coding
Duration : 2 h 9 min
Bit rate : 53.7 Mb/s
Width : 3 840 pixels
Height : 2 160 pixels
Display aspect ratio : 16:9
Frame rate mode : Constant
Frame rate : 23.976 (24000/1001) FPS
Color space : YUV
Chroma subsampling : 4:2:0 (Type 2)
Bit depth : 10 bits
Bits/(Pixel*Frame) : 0.270
Stream size : 48.5 GiB (94%)
Encoded date : UTC 2019-10-23 01:28:20
Tagged date : UTC 2019-10-23 02:07:59
Color range : Limited
Color primaries : BT.2020
Transfer characteristics : PQ
Matrix coefficients : BT.2020 non-constant
Mastering display color primaries : Display P3
Mastering display luminance : min: 0.0001 cd/m2, max: 1000 cd/m2
Maximum Content Light Level : 9978 cd/m2
Maximum Frame-Average Light Level : 614 cd/m2
Codec configuration box : hvcC

Video #2
ID : 2
Format : HEVC
Format/Info : High Efficiency Video Coding
Format profile : Main 10@L5.1@High
HDR format : Dolby Vision, Version 1.0, dvhe.07.06, EL+RPU / SMPTE ST 2086, HDR10 compatible
Codec ID : dvhe
Codec ID/Info : High Efficiency Video Coding with Dolby Vision
Duration : 2 h 9 min
Bit rate : 2 096 kb/s
Width : 1 920 pixels
Height : 1 080 pixels
Display aspect ratio : 16:9
Frame rate mode : Constant
Frame rate : 23.976 (24000/1001) FPS
Color space : YUV
Chroma subsampling : 4:2:0 (Type 2)
Bit depth : 10 bits
Bits/(Pixel*Frame) : 0.042
Stream size : 1.89 GiB (4%)
Encoded date : UTC 2019-10-23 01:28:20
Tagged date : UTC 2019-10-23 02:07:59
Color range : Limited
Color primaries : BT.2020
Transfer characteristics : PQ
Matrix coefficients : BT.2020 non-constant
Mastering display color primaries : Display P3
Mastering display luminance : min: 0.0001 cd/m2, max: 1000 cd/m2
Codec configuration box : hvcC+dvcC

Audio #1
ID : 3
Format : AC-3
Format/Info : Audio Coding 3
Commercial name : Dolby Digital
Codec ID : ac-3
Duration : 2 h 9 min
Bit rate mode : Constant
Bit rate : 640 kb/s
Channel(s) : 6 channels
Channel layout : L R C LFE Ls Rs
Sampling rate : 48.0 kHz
Frame rate : 31.250 FPS (1536 SPF)
Compression mode : Lossy
Stream size : 592 MiB (1%)
Title : Russian (ac3 5.1)
Language : Russian
Service kind : Complete Main
Default : Yes
Alternate group : 1
Encoded date : UTC 2019-10-23 01:28:20
Tagged date : UTC 2019-10-23 02:07:59

Audio #2
ID : 4
Format : AC-3
Format/Info : Audio Coding 3
Commercial name : Dolby Digital
Codec ID : ac-3
Duration : 2 h 9 min
Bit rate mode : Constant
Bit rate : 160 kb/s
Channel(s) : 2 channels
Channel layout : L R
Sampling rate : 48.0 kHz
Frame rate : 31.250 FPS (1536 SPF)
Compression mode : Lossy
Stream size : 148 MiB (0%)
Title : Ukrainian (ac3 2.0)
Language : Ukrainian
Service kind : Complete Main
Default : No
Alternate group : 1
Encoded date : UTC 2019-10-23 01:28:20
Tagged date : UTC 2019-10-23 02:07:59

Audio #3
ID : 5
Format : AC-3
Format/Info : Audio Coding 3
Commercial name : Dolby Digital
Codec ID : ac-3
Duration : 2 h 9 min
Bit rate mode : Constant
Bit rate : 640 kb/s
Channel(s) : 6 channels
Channel layout : L R C LFE Ls Rs
Sampling rate : 48.0 kHz
Frame rate : 31.250 FPS (1536 SPF)
Compression mode : Lossy
Stream size : 592 MiB (1%)
Title : English (ac3 5.1)
Language : English
Service kind : Complete Main
Default : No
Alternate group : 1
Encoded date : UTC 2019-10-23 01:28:20
Tagged date : UTC 2019-10-23 02:07:59

pb.wtf



Скачать Человек-паук: Вдали от дома через торрент https://a.radikal.ru/a15/1804/77/25bd8085c8d9.png Скачать фильм Человек-паук: Вдали от дома через торрент бесплантно в хорошем качестве Описание: Питер Паркер вместе с друзьями отправляется на летние каникулы в Европу. Однако отдохнуть приятелям вряд ли удастся - Питеру ... 9.5 10 4
Info! Золотая раздача, скачанное не засчитывается.
Торрент: Зарегистрирован [2019-10-23 04:46] · скачан: 26 раз
Статус: √ проверено
Размер: 51.75 GB
Как cкачать? Как скачать Человек-паук: Вдали от дома через торрент | qTorrent

% Раздел Тема Автор DL S | L
Фильмы 2019-2020 [DVDrip, WEB-DLRip, HDrip] (DUB, MVO) [ 795 MB ] Человек-паук: Вдали от дома / Spider-Man: Far from Home [2019 HDRip] DUB [] bober100 Скачать
2 | 0
Фильмы (Blu-ray, BD-Remux, HDDVD) [ 42.96 GB ] Человек-паук: Вдали от дома / Spider-Man: Far from Home [2019 Blu-ray EUR 1080p] DUB [] bober100 Скачать
2 | 0
Фильмы 2019-2020 [DVDrip, WEB-DLRip, HDrip] (DUB, MVO) [ 1.46 GB ] Человек-паук: Вдали от дома / Spider-Man: Far from Home [2019 BDRip] DUB [ BD EUR] bober100 Скачать
2 | 0
Ultra HD (UHD: 2K, 4K, 8K) — видео сверхвысокой чёткости [ 70.77 GB ] Человек-паук: Вдали от дома / Spider-Man: Far from Home [2019 UHD Blu-ray EUR 2160p] [Dolby Vision] DUB [] bober100 Скачать
1 | 0
Фильмы 2019-2020 [DVDrip, WEB-DLRip, HDrip] (DUB, MVO) [ 2.64 GB ] Человек-паук: Вдали от дома / Spider-Man: Far from Home [2019 BDRip-AVC] DUB [] +MVO [HDrezka Studio] bober100 Скачать
4 | 0
Фильмы [HD 720p, 1080p] (Хороший звук DUB, MVO) [ 8.25 GB ] Человек-паук: Вдали от дома / Spider-Man: Far from Home [2019 BDRip 1080p] DUB [] +MVO [HDrezka Studio] bober100 Скачать
6 | 0
Фильмы 2019-2020 [DVDrip, WEB-DLRip, HDrip] (DUB, MVO) [ 2.69 GB ] Человек-паук: Вдали от дома / Spider-Man: Far from Home [2019 BDRip-AVC] DUB [] - ExKinoRay Enigma2010 Скачать
9 | 0

28-11-2019 20:33  

Отключить всю рекламу на сайте

    Дорогой пользователь! Огромная просьба, поблагодарите релизера, оцените раздачу и оставьте свои комментарий, если Вы скачали Человек-паук: Вдали от дома через торрент бесплатно! Внесите свою лепту в развитие PiratBit!
    Комментировать посты могут только пользователи прошедшие не сложную регистрацию
    Показать сообщения:    

    Человек-паук: Вдали от дома через торрент
    Скачать бесплатно Человек-паук: Вдали от дома
    Человек-паук: Вдали от дома скачать торрент
    Человек-паук: Вдали от дома смотреть онлайн
    Cкачать фильм Человек-паук: Вдали от дома бесплатно
    Человек-паук: Вдали от дома скачать торрент в хорошем качестве
    Человек-паук: Вдали от дома смотреть онлайн бесплатно в хорошем качестве


    Вы не можете начинать темы
    Вы не можете отвечать на сообщения
    Вы не можете редактировать свои сообщения
    Вы не можете удалять свои сообщения
    Вы не можете голосовать в опросах
    Вы не можете прикреплять файлы к сообщениям
    Вы можете скачивать файлы