Anonymous, добрый вечер, присоединяйтесь к нам в Telegram!, здесь всегда актуальный адрес сайта, оперативная поддержка и многое другое!

>

5.6

iTunes

7.4

MVO

5.7

MVO

1

7.7

1 сезон

6.8

iTunes

7.3

1 сезон

13

6.7

1 сезон

8.3

RePack

30

ULTIMATE

pack

9.9

Лицензия

ВАЖНО

ИГРА 18+

pack

7.3

RePack

MK11

7.7

RePack

jed

7.8

RePack

fifa19

8.5

RePack

RDR2

RePack

NEED FOR SPEED™ PAYBACK

4 сезон

9 сезон

Бесстыжие 9 сезон

Все сериалы

все сериалы на PB.wtf

RePack

FAR CRY 5

Anonymous, добрый вечер, мы катастрофически не успеваем собрать деньги на оплату серверов, помогите нам пожалуйста 5,10,15р., для нас важна любая помощь . В качестве благодарности мы отключим Вам всю рекламу на сайте (укажите свой ник в строку Ваше имя)!

×
  
Magnet ссылка

Год культуры / Серии: 1-20 из 20 (Тито Калатозишвили) [2018, комедия, WEB-DL 1080p] pb.wtf

Год культуры через торрент pb.wtf

Размер: 19.25 GB | Добавлен: 1 год 11 мес. назад | Торрент скачан:88 раз
Смотреть онлайн Год культуры | Скачать    Ребята, помогите собрать деньги на оплату серверов!!!

23-10-2019 18:40 Год культуры Скачать торрент  

Год культуры Год выпуска: 2018
Производство: Comedy Club Production, Art Pictures Vision
Жанр: комедия
Продолжительность: ~00:24:00
Субтитры: нет

Режиссёр: Тито Калатозишвили

В ролях: Фёдор Бондарчук, Мария Ахметзянова, Александр Лыков, Александр Яценко, Риналь Мухаметов, Ольга Медынич, Валерия Шкирандо, Александр Обласов, Мария Карпова, Александр Ильин, Иван Мартынов, Игорь Угольников, Виктория Верберг

Описание: Нерадивый чиновник Виктор Михайлович Сычёв отправляется в ссылку на кафедру словесности в региональный вуз. Там ему придется сменить уютное кожаное кресло и просторный кабинет на шаткую табуретку и пыльную аудиторию. Что может быть лучше для служителя Министерства образования, чем полное погружение в это самое образование? Сериал покажет, чем может обернуться для высокопоставленного чиновника халатное отношение к собственным обязанностям.

rating


Качество: WEB-DL 1080p
Формат: MKV
Видео кодек: H.264
Аудио кодек: AC3

Видео: MPEG4 AVC Video, H264, 16:9, 1920x1080, 25 fps, ~5000 kbps, 0.096 bit/pixel
Аудио: AC3 Dolby Digital, 48.0 kHz, 2/0 (L,R) ch, 192 kbps
Раздача ведётся путём добавления новых серий, при каждом добавлении создаётся новый торрент. Чтобы начать докачку новой серии, пользователям необходимо сделать следующее:

- Остановить скачивание.
- Удалить старый торрент у себя из клиента (старые серии удалять не надо).
- Скачать новый торрент и запустить его у себя в клиенте вместо старого, при этом указать клиенту путь в старую папку куда и должно происходить скачивание новых серий.

Ваш клиент при этом должен произвести хеширование (проверку) старой папки (если не производит сам - помогите ему сделать это), и будет докачивать только те серии которых у вас ещё нет. Старые серии при этом не удаляются, а продолжают раздаваться!
Если вы уже удалили старые серии, то предотвратить повторную закачку старых серий можно, отжав галочку в соответствующих местах при запуске нового торрента. По возможности, желательно не удалять старые серии как можно дольше, чтобы релизер не столько продолжал раздавать старые серии, а смог сконцентрироваться на новых.
General
Unique ID : 174906495269867755752884100808202105814 (0x8395C403008072A0836A42494D25B3D6)
Complete name : D:\God.kulturi.2018.WEB-DL.(1080p).Getty\God.kulturi.e01.2018.WEB-DL.(1080p).Getty.mkv
Format : Matroska
Format version : Version 4 / Version 2
File size : 1.60 GiB
Duration : 44 min 24 s
Overall bit rate mode : Constant
Overall bit rate : 5 173 kb/s
Movie name : God.kulturi.e01.2018.WEB-DL.(1080p).Getty
Encoded date : UTC 2018-11-21 20:40:31
Writing application : mkvmerge v7.8.0 ('River Man') 32bit built on Mar 27 2015 16:18:02
Writing library : libebml v1.3.1 + libmatroska v1.4.2

Video
ID : 1
Format : AVC
Format/Info : Advanced Video Codec
Format profile : Baseline@L4
Format settings : 4 Ref Frames
Format settings, CABAC : No
Format settings, ReFrames : 4 frames
Codec ID : V_MPEG4/ISO/AVC
Duration : 44 min 24 s
Bit rate mode : Constant
Bit rate : 5 000 kb/s
Width : 1 920 pixels
Height : 1 080 pixels
Display aspect ratio : 16:9
Frame rate mode : Constant
Frame rate : 25.000 FPS
Standard : PAL
Color space : YUV
Chroma subsampling : 4:2:0
Bit depth : 8 bits
Scan type : Progressive
Bits/(Pixel*Frame) : 0.096
Stream size : 1.54 GiB (96%)
Default : Yes
Forced : No
Color range : Limited
Color primaries : BT.709
Transfer characteristics : BT.709
Matrix coefficients : BT.709

Audio
ID : 2
Format : AC-3
Format/Info : Audio Coding 3
Codec ID : A_AC3
Duration : 44 min 24 s
Bit rate mode : Constant
Bit rate : 192 kb/s
Channel(s) : 2 channels
Channel positions : Front: L R
Sampling rate : 48.0 kHz
Frame rate : 31.250 FPS (1536 SPF)
Bit depth : 16 bits
Compression mode : Lossy
Stream size : 61.0 MiB (4%)
Service kind : Complete Main
Default : Yes
Forced : No
скриншот  скриншот  скриншот  скриншот  

скриншот  скриншот  скриншот  скриншот  
pb.wtf



Скачать Год культуры через торрент http://lostpix.com/img/2019-01/24/p3m4kjmksob0i184je6i01ajx.jpg Скачать, смотреть онлайн Год культуры бесплантно в хорошем качестве Описание: Нерадивый чиновник Виктор Михайлович Сычёв отправляется в ссылку на кафедру словесности в региональный вуз. Там ему придется ... 10 10 5
Торрент: Зарегистрирован [2019-10-23 18:40] · скачан: 88 раз
Статус: √ проверено
Размер: 19.25 GB
Как cкачать? Как скачать Год культуры через торрент | UTorrent

% Раздел Тема Автор DL S | L
Наши сериалы [ 6.89 GB ] Год культуры / Сезон: 1 / Серии: 1-20 из 20 [2018 WEBRip] bober100 Скачать
1 | 0
TNT serials [ 6.66 GB ] Год культуры / Сезон: 1 / Серии: 1-20 из 20 [2018 WEBRip-AVC] bober100 Скачать
2 | 0
TNT serials [ 10.34 GB ] Год культуры / Сезон: 1 / Серии: 1-20 из 20 [2018 WEB-DL 720p] bober100 Скачать
1 | 0

28-11-2019 20:33  

Отключить всю рекламу на сайте

    Дорогой пользователь! Огромная просьба, поблагодарите релизера, оцените раздачу и оставьте свои комментарий, если Вы скачали Год культуры через торрент бесплатно!
    Комментировать посты могут только пользователи прошедшие не сложную регистрацию
    Показать сообщения:    

    Год культуры через торрент
    Скачать бесплатно Год культуры
    Год культуры скачать торрент
    Год культуры смотреть онлайн
    Cкачать фильм Год культуры бесплатно
    Год культуры скачать торрент в хорошем качестве
    Год культуры смотреть онлайн бесплатно в хорошем качестве


    Вы не можете начинать темы
    Вы не можете отвечать на сообщения
    Вы не можете редактировать свои сообщения
    Вы не можете удалять свои сообщения
    Вы не можете голосовать в опросах
    Вы не можете прикреплять файлы к сообщениям
    Вы можете скачивать файлы