Ссылка на приватное зеркало нашего сайта всего за 1$. Внимание количество ограничено!!!

2 сезон

iTunes

1 сезон

1

2 сезон

2 сезон

iTunes

1 сезон

RePack

30

Ultimate

ВАЖНО

ИГРА 18+

pack

RePack

MK11
pack

Забери бонус

RePack

jed

!!Акция!!

Alien_Rage

RePack

fifa19

RePack

Assassins Creed: Odyssey

RePack

NEED FOR SPEED™ PAYBACK

4 сезон

9 сезон

Бесстыжие 9 сезон

Все сериалы

все сериалы на PB.wtf

RePack

FAR CRY 5
  

Diviner - Realms Of Time - 2019/ FLAC/ image +.cue/ lossless/ Power Metal pb.wtf

Diviner - Realms Of Time - 2019 через торрент pb.wtf

Размер: 401 MB | Добавлен: 1 год 1 мес. назад | Торрент скачан:7 раз
Скачать  

24-10-2019 11:53 Diviner - Realms Of Time - 2019 Скачать торрент  


Diviner - Realms Of Time


Год издания: 2019
Страна: Grrece
Жанр: Power Metal
Продолжительность: 00:45:31
Лейбл издания: Ulterium Records
Страна-выпуска диска: Sweden
Номер по каталогу: ULTCD043
Формат: FLAC
Битрейт аудио: Lossless
Тип рипа: image +.cue
Наличие сканов в содержимом раздачи: да


01. Against The Grain (4:27)
02. Heaven Falls (4:15)
03. Set Me Free (4:04)
04. The Earth, The Moon, The Sun (5:21)
05. Cast Down In Fire (4:33)
06. Beyond The Border (5:29)
07. King Of Masquerade (4:11)
08. Time (3:57)
09. The Voice From Within (4:28)
10. Stargate (4:45)

Код:

Exact Audio Copy V1.3 from 2. September 2016

EAC extraction logfile from 12. July 2019, 11:01

Diviner / Realms Of Time (ULTCD043)

Used drive  : PIONEER DVD-RW  DVR-221   Adapter: 1  ID: 0

Read mode               : Secure
Utilize accurate stream : Yes
Defeat audio cache      : Yes
Make use of C2 pointers : No

Read offset correction                      : 6
Overread into Lead-In and Lead-Out          : No
Fill up missing offset samples with silence : Yes
Delete leading and trailing silent blocks   : No
Null samples used in CRC calculations       : Yes
Used interface                              : Installed external ASPI interface

Used output format              : User Defined Encoder
Selected bitrate                : 1024 kBit/s
Quality                         : High
Add ID3 tag                     : No
Command line compressor         : C:\Program Files\Exact Audio Copy\FLAC\FLAC.EXE
Additional command line options : -V -8 -T "Date=%year%" -T "Genre=%genre%" -T "COMMENT=" -8 -V %source%

TOC of the extracted CD

     Track |   Start  |  Length  | Start sector | End sector
    ---------------------------------------------------------
        1  |  0:00.00 |  4:27.27 |         0    |    20051
        2  |  4:27.27 |  4:15.28 |     20052    |    39204
        3  |  8:42.55 |  4:03.62 |     39205    |    57491
        4  | 12:46.42 |  5:21.10 |     57492    |    81576
        5  | 18:07.52 |  4:32.59 |     81577    |   102035
        6  | 22:40.36 |  5:28.58 |    102036    |   126693
        7  | 28:09.19 |  4:10.49 |    126694    |   145492
        8  | 32:19.68 |  3:57.18 |    145493    |   163285
        9  | 36:17.11 |  4:28.35 |    163286    |   183420
       10  | 40:45.46 |  4:44.71 |    183421    |   204791

Range status and errors

Selected range

     Filename D:\Program Files\CD Images\Hellwings71\Diviner - Realms Of Time 2019 (Lossless)\Diviner - Realms Of Time (ULTCD043).wav

     Peak level 96.7 %
     Extraction speed 4.5 X
     Range quality 100.0 %
     Test CRC 1F7E4D9F
     Copy CRC 1F7E4D9F
     Copy OK

No errors occurred

AccurateRip summary

Track  1  not present in database
Track  2  not present in database
Track  3  not present in database
Track  4  not present in database
Track  5  not present in database
Track  6  not present in database
Track  7  not present in database
Track  8  not present in database
Track  9  not present in database
Track 10  not present in database

None of the tracks are present in the AccurateRip database

End of status report

Код:

REM GENRE "Heavy Metal"
REM DATE 2019
REM DISCID 950AAA0A
REM COMMENT "ExactAudioCopy v1.3"
PERFORMER "Diviner"
TITLE "Realms Of Time (ULTCD043)"
REM COMPOSER ""
FILE "Diviner - Realms Of Time (ULTCD043).flac" WAVE
  TRACK 01 AUDIO
    TITLE "Against The Grain"
    PERFORMER "Diviner"
    REM COMPOSER ""
    INDEX 01 00:00:00
  TRACK 02 AUDIO
    TITLE "Heaven Falls"
    PERFORMER "Diviner"
    REM COMPOSER ""
    INDEX 00 04:26:27
    INDEX 01 04:27:27
  TRACK 03 AUDIO
    TITLE "Set Me Free"
    PERFORMER "Diviner"
    REM COMPOSER ""
    INDEX 00 08:41:55
    INDEX 01 08:42:55
  TRACK 04 AUDIO
    TITLE "The Earth, The Moon, The Sun"
    PERFORMER "Diviner"
    REM COMPOSER ""
    INDEX 00 12:45:42
    INDEX 01 12:46:42
  TRACK 05 AUDIO
    TITLE "Cast Down In Fire"
    PERFORMER "Diviner"
    REM COMPOSER ""
    INDEX 00 18:06:52
    INDEX 01 18:07:52
  TRACK 06 AUDIO
    TITLE "Beyond The Border"
    PERFORMER "Diviner"
    REM COMPOSER ""
    INDEX 00 22:39:36
    INDEX 01 22:40:36
  TRACK 07 AUDIO
    TITLE "King Of Masquerade"
    PERFORMER "Diviner"
    REM COMPOSER ""
    INDEX 00 28:08:19
    INDEX 01 28:09:19
  TRACK 08 AUDIO
    TITLE "Time"
    PERFORMER "Diviner"
    REM COMPOSER ""
    INDEX 00 32:18:68
    INDEX 01 32:19:68
  TRACK 09 AUDIO
    TITLE "The Voice From Within"
    PERFORMER "Diviner"
    REM COMPOSER ""
    INDEX 00 36:16:11
    INDEX 01 36:17:11
  TRACK 10 AUDIO
    TITLE "Stargate"
    PERFORMER "Diviner"
    REM COMPOSER ""
    INDEX 00 40:44:46
    INDEX 01 40:45:46






pb.wtf



Скачать Diviner - Realms Of Time - 2019 через торрент http://i87.fastpic.ru/big/2019/1022/49/22a6c12406281bdfaa118675412a6649.png Скачать фильм Diviner - Realms Of Time - 2019через торрент бесплантно в хорошем качестве Трэклист Against The Grain (4:27) Heaven Falls (4:15) Set Me Free (4:04) The Earth, The Moon, The Sun (5:21) Cast ... 5 10 1
Торрент: Зарегистрирован [2019-10-24 11:53] · скачан: 7 раз
Статус: √ проверено
Размер: 401 MB
Как cкачать? Как скачать Diviner - Realms Of Time - 2019 через торрент | qTorrent

28-11-2019 20:33  

Отключить всю рекламу на сайте

    Дорогой пользователь! Огромная просьба, поблагодарите релизера, оцените раздачу и оставьте свои комментарий, если Вы скачали Diviner - Realms Of Time - 2019 через торрент бесплатно! Внесите свою лепту в развитие PiratBit!
    Комментировать посты могут только пользователи прошедшие не сложную регистрацию
    Показать сообщения:    

    Diviner - Realms Of Time - 2019 через торрент
    Скачать бесплатно Diviner - Realms Of Time - 2019
    Diviner - Realms Of Time - 2019 скачать торрент
    Diviner - Realms Of Time - 2019 смотреть онлайн
    Cкачать фильм Diviner - Realms Of Time - 2019 бесплатно
    Diviner - Realms Of Time - 2019 скачать торрент в хорошем качестве
    Diviner - Realms Of Time - 2019 смотреть онлайн бесплатно в хорошем качестве


    Вы не можете начинать темы
    Вы не можете отвечать на сообщения
    Вы не можете редактировать свои сообщения
    Вы не можете удалять свои сообщения
    Вы не можете голосовать в опросах
    Вы не можете прикреплять файлы к сообщениям
    Вы можете скачивать файлы