Ссылка на приватное зеркало нашего сайта всего за 1$. Внимание количество ограничено!!!

2 сезон

iTunes

1 сезон

1

2 сезон

2 сезон

iTunes

1 сезон

RePack

30

Ultimate

ВАЖНО

ИГРА 18+

pack

RePack

MK11
pack

Забери бонус

RePack

jed

!!Акция!!

Alien_Rage

RePack

fifa19

RePack

Assassins Creed: Odyssey

RePack

NEED FOR SPEED™ PAYBACK

4 сезон

9 сезон

Бесстыжие 9 сезон

Все сериалы

все сериалы на PB.wtf

RePack

FAR CRY 5
  

Demons & Wizards - Touched By The Crimson King (2CD, 2005, Remastered - 2019/ FLAC/ image +.cue/ lossless/ Power Metal pb.wtf

Demons & Wizards - Touched By The Crimson King через торрент pb.wtf

Размер: 881 MB | Добавлен: 1 год 1 мес. назад | Торрент скачан:14 раз
Скачать  

24-10-2019 11:55 Demons & Wizards - Touched By The Crimson King Скачать торрент  


Demons & Wizards - Touched By The Crimson King (2CD, 2005, Remastered - 2019


Год издания: 2019
Страна: USA | Germany |
Жанр: Power Metal
Продолжительность: 01:49:31
Лейбл издания: Century Media
Страна-выпуска диска: EU
Номер по каталогу:
Формат: FLAC
Битрейт аудио: Lossless
Тип рипа: image +.cue
Наличие сканов в содержимом раздачи: да


01. Crimson King (5:46)
02. Beneath These Waves (5:12)
03. Terror Train (4:46)
04. Seize The Day (5:23)
05. The Gunslinger (5:14)
06. Love's Tragedy Asunder (5:28)
07. Wicked Witch (3:32)
08. Dorian (6:36)
09. Down Where I Am (4:54)
10. Immigrant Song (2:28)
11. Lunar Lament (4:03)
12. Spatial Architects (5:46)
13. Wicked Witch [Slow Version] (3:57)

01. Terror Train (Demo (4:46)
02. Beneath These Waves (Demo) (5:14)
03. Seize The Day (Demo) (5:14)
04. Spatial Architects (Demo) (4:37)
05. Down Where I Am (Demo) (5:32)
06. The Gunslinger (Demo) (4:55)
07. Until She Comes (Demo) (5:10)
08. Love's Tragedy Asunder (Demo) (5:12)
09. Crimson King (Demo) (5:45)

Код:

Exact Audio Copy V1.3 from 2. September 2016

EAC extraction logfile from 30. July 2019, 11:16

Demons & Wizards / Touched By The Crimson King (Remastered 2019)

Used drive  : PIONEER DVD-RW  DVR-221   Adapter: 1  ID: 0

Read mode               : Secure
Utilize accurate stream : Yes
Defeat audio cache      : Yes
Make use of C2 pointers : No

Read offset correction                      : 6
Overread into Lead-In and Lead-Out          : No
Fill up missing offset samples with silence : Yes
Delete leading and trailing silent blocks   : No
Null samples used in CRC calculations       : Yes
Used interface                              : Installed external ASPI interface

Used output format              : User Defined Encoder
Selected bitrate                : 1024 kBit/s
Quality                         : High
Add ID3 tag                     : No
Command line compressor         : C:\Program Files\Exact Audio Copy\FLAC\FLAC.EXE
Additional command line options : -V -8 -T "Date=%year%" -T "Genre=%genre%" -T "COMMENT=" -8 -V %source%

TOC of the extracted CD

     Track |   Start  |  Length  | Start sector | End sector
    ---------------------------------------------------------
        1  |  0:00.00 |  5:45.73 |         0    |    25947
        2  |  5:45.73 |  5:12.15 |     25948    |    49362
        3  | 10:58.13 |  4:45.72 |     49363    |    70809
        4  | 15:44.10 |  5:22.53 |     70810    |    95012
        5  | 21:06.63 |  5:14.25 |     95013    |   118587
        6  | 26:21.13 |  5:27.38 |    118588    |   143150
        7  | 31:48.51 |  3:32.32 |    143151    |   159082
        8  | 35:21.08 |  6:36.30 |    159083    |   188812
        9  | 41:57.38 |  4:54.20 |    188813    |   210882
       10  | 46:51.58 |  2:28.26 |    210883    |   222008
       11  | 49:20.09 |  4:03.04 |    222009    |   240237
       12  | 53:23.13 |  5:46.15 |    240238    |   266202
       13  | 59:09.28 |  3:56.50 |    266203    |   283952

Range status and errors

Selected range

     Filename D:\Program Files\CD Images\Demons & Wizards - Touched By The Crimson King 2005 (2 CD) (Remastered 2019) (Lossless)\CD1\Demons & Wizards - Touched By The Crimson King (Remastered 2019).wav

     Peak level 99.4 %
     Extraction speed 8.2 X
     Range quality 100.0 %
     Test CRC 181E828D
     Copy CRC 181E828D
     Copy OK

No errors occurred

AccurateRip summary

Track  1  accurately ripped (confidence 2)  [3C9D1D4C]  (AR v2)
Track  2  accurately ripped (confidence 2)  [DEAB33AB]  (AR v2)
Track  3  accurately ripped (confidence 2)  [27ED88DB]  (AR v2)
Track  4  accurately ripped (confidence 2)  [327E9B3B]  (AR v2)
Track  5  accurately ripped (confidence 2)  [B93773F0]  (AR v2)
Track  6  accurately ripped (confidence 2)  [F6DCB114]  (AR v2)
Track  7  accurately ripped (confidence 2)  [14B64561]  (AR v2)
Track  8  accurately ripped (confidence 2)  [08F7A283]  (AR v2)
Track  9  accurately ripped (confidence 2)  [1FA487D6]  (AR v2)
Track 10  accurately ripped (confidence 2)  [517306C2]  (AR v2)
Track 11  accurately ripped (confidence 2)  [6E6488AF]  (AR v2)
Track 12  accurately ripped (confidence 2)  [A42FE0B0]  (AR v2)
Track 13  accurately ripped (confidence 2)  [33BE6459]  (AR v2)

All tracks accurately ripped

End of status report

Код:

Exact Audio Copy V1.3 from 2. September 2016

EAC extraction logfile from 30. July 2019, 11:42

Demons & Wizards / Touched By The Crimson King (The Demos)

Used drive  : PIONEER DVD-RW  DVR-221   Adapter: 1  ID: 0

Read mode               : Secure
Utilize accurate stream : Yes
Defeat audio cache      : Yes
Make use of C2 pointers : No

Read offset correction                      : 6
Overread into Lead-In and Lead-Out          : No
Fill up missing offset samples with silence : Yes
Delete leading and trailing silent blocks   : No
Null samples used in CRC calculations       : Yes
Used interface                              : Installed external ASPI interface

Used output format              : User Defined Encoder
Selected bitrate                : 1024 kBit/s
Quality                         : High
Add ID3 tag                     : No
Command line compressor         : C:\Program Files\Exact Audio Copy\FLAC\FLAC.EXE
Additional command line options : -V -8 -T "Date=%year%" -T "Genre=%genre%" -T "COMMENT=" -8 -V %source%

TOC of the extracted CD

     Track |   Start  |  Length  | Start sector | End sector
    ---------------------------------------------------------
        1  |  0:00.00 |  4:45.61 |         0    |    21435
        2  |  4:45.61 |  5:13.44 |     21436    |    44954
        3  |  9:59.30 |  5:14.25 |     44955    |    68529
        4  | 15:13.55 |  4:37.20 |     68530    |    89324
        5  | 19:51.00 |  5:32.35 |     89325    |   114259
        6  | 25:23.35 |  4:54.47 |    114260    |   136356
        7  | 30:18.07 |  5:09.45 |    136357    |   159576
        8  | 35:27.52 |  5:11.67 |    159577    |   182968
        9  | 40:39.44 |  5:45.31 |    182969    |   208874

Range status and errors

Selected range

     Filename D:\Program Files\CD Images\Demons & Wizards - Touched By The Crimson King 2005 (2 CD) (Remastered 2019) (Lossless)\CD2\Demons & Wizards - Touched By The Crimson King (The Demos).wav

     Peak level 99.6 %
     Extraction speed 4.4 X
     Range quality 100.0 %
     Test CRC 0048BAEC
     Copy CRC 0048BAEC
     Copy OK

No errors occurred

AccurateRip summary

Track  1  accurately ripped (confidence 2)  [8B58B104]  (AR v2)
Track  2  accurately ripped (confidence 2)  [993C6847]  (AR v2)
Track  3  accurately ripped (confidence 2)  [0F8553CC]  (AR v2)
Track  4  accurately ripped (confidence 2)  [D86C2DD1]  (AR v2)
Track  5  accurately ripped (confidence 2)  [DFECDE8D]  (AR v2)
Track  6  accurately ripped (confidence 2)  [2255D516]  (AR v2)
Track  7  accurately ripped (confidence 2)  [A04796CF]  (AR v2)
Track  8  accurately ripped (confidence 2)  [5E046FD6]  (AR v2)
Track  9  accurately ripped (confidence 2)  [393438BD]  (AR v2)

All tracks accurately ripped

End of status report

Код:

REM GENRE "Heavy Metal"
REM DATE 2019
REM DISCID AE0ECA0D
REM COMMENT "ExactAudioCopy v1.3"
PERFORMER "Demons & Wizards"
TITLE "Touched By The Crimson King (Remastered 2019)"
REM COMPOSER ""
FILE "Demons & Wizards - Touched By The Crimson King (Remastered 2019).flac" WAVE
  TRACK 01 AUDIO
    TITLE "Crimson King"
    PERFORMER "Demons & Wizards"
    REM COMPOSER ""
    INDEX 01 00:00:00
  TRACK 02 AUDIO
    TITLE "Beneath These Waves"
    PERFORMER "Demons & Wizards"
    REM COMPOSER ""
    INDEX 01 05:45:73
  TRACK 03 AUDIO
    TITLE "Terror Train"
    PERFORMER "Demons & Wizards"
    REM COMPOSER ""
    INDEX 01 10:58:13
  TRACK 04 AUDIO
    TITLE "Seize The Day"
    PERFORMER "Demons & Wizards"
    REM COMPOSER ""
    INDEX 01 15:44:10
  TRACK 05 AUDIO
    TITLE "The Gunslinger"
    PERFORMER "Demons & Wizards"
    REM COMPOSER ""
    INDEX 01 21:06:63
  TRACK 06 AUDIO
    TITLE "Love's Tragedy Asunder"
    PERFORMER "Demons & Wizards"
    REM COMPOSER ""
    INDEX 01 26:21:13
  TRACK 07 AUDIO
    TITLE "Wicked Witch"
    PERFORMER "Demons & Wizards"
    REM COMPOSER ""
    INDEX 01 31:48:51
  TRACK 08 AUDIO
    TITLE "Dorian"
    PERFORMER "Demons & Wizards"
    REM COMPOSER ""
    INDEX 01 35:21:08
  TRACK 09 AUDIO
    TITLE "Down Where I Am"
    PERFORMER "Demons & Wizards"
    REM COMPOSER ""
    INDEX 01 41:57:38
  TRACK 10 AUDIO
    TITLE "Immigrant Song"
    PERFORMER "Demons & Wizards"
    REM COMPOSER ""
    INDEX 01 46:51:58
  TRACK 11 AUDIO
    TITLE "Lunar Lament"
    PERFORMER "Demons & Wizards"
    REM COMPOSER ""
    INDEX 01 49:20:09
  TRACK 12 AUDIO
    TITLE "Spatial Architects"
    PERFORMER "Demons & Wizards"
    REM COMPOSER ""
    INDEX 01 53:23:13
  TRACK 13 AUDIO
    TITLE "Wicked Witch [Slow Version]"
    PERFORMER "Demons & Wizards"
    REM COMPOSER ""
    INDEX 01 59:09:28

Код:

REM GENRE "Heavy Metal"
REM DATE 2019
REM DISCID 680AE109
REM COMMENT "ExactAudioCopy v1.3"
PERFORMER "Demons & Wizards"
TITLE "Touched By The Crimson King (The Demos)"
REM COMPOSER ""
FILE "Demons & Wizards - Touched By The Crimson King (The Demos).flac" WAVE
  TRACK 01 AUDIO
    TITLE "Terror Train (Demo"
    PERFORMER "Demons & Wizards"
    REM COMPOSER ""
    INDEX 01 00:00:00
  TRACK 02 AUDIO
    TITLE "Beneath These Waves (Demo)"
    PERFORMER "Demons & Wizards"
    REM COMPOSER ""
    INDEX 01 04:45:61
  TRACK 03 AUDIO
    TITLE "Seize The Day (Demo)"
    PERFORMER "Demons & Wizards"
    REM COMPOSER ""
    INDEX 01 09:59:30
  TRACK 04 AUDIO
    TITLE "Spatial Architects (Demo)"
    PERFORMER "Demons & Wizards"
    REM COMPOSER ""
    INDEX 01 15:13:55
  TRACK 05 AUDIO
    TITLE "Down Where I Am (Demo)"
    PERFORMER "Demons & Wizards"
    REM COMPOSER ""
    INDEX 01 19:51:00
  TRACK 06 AUDIO
    TITLE "The Gunslinger (Demo)"
    PERFORMER "Demons & Wizards"
    REM COMPOSER ""
    INDEX 01 25:23:35
  TRACK 07 AUDIO
    TITLE "Until She Comes (Demo)"
    PERFORMER "Demons & Wizards"
    REM COMPOSER ""
    INDEX 01 30:18:07
  TRACK 08 AUDIO
    TITLE "Love's Tragedy Asunder (Demo)"
    PERFORMER "Demons & Wizards"
    REM COMPOSER ""
    INDEX 01 35:27:52
  TRACK 09 AUDIO
    TITLE "Crimson King (Demo)"
    PERFORMER "Demons & Wizards"
    REM COMPOSER ""
    INDEX 01 40:39:44






pb.wtf



Скачать Demons & Wizards - Touched By The Crimson King через торрент http://i89.fastpic.ru/big/2019/1022/27/104f827195d03e84d71bc561bd3cc327.png Скачать фильм Demons & Wizards - Touched By The Crimson King через торрент бесплантно в хорошем качестве ... 5 10 1
Торрент: Зарегистрирован [2019-10-24 11:55] · скачан: 14 раз
Статус: √ проверено
Размер: 881 MB
Как cкачать? Как скачать Demons & Wizards - Touched By The Crimson King через торрент | qTorrent

28-11-2019 20:33  

Отключить всю рекламу на сайте

    Дорогой пользователь! Огромная просьба, поблагодарите релизера, оцените раздачу и оставьте свои комментарий, если Вы скачали Demons & Wizards - Touched By The Crimson King через торрент бесплатно! Внесите свою лепту в развитие PiratBit!
    Комментировать посты могут только пользователи прошедшие не сложную регистрацию
    Показать сообщения:    

    Demons & Wizards - Touched By The Crimson King через торрент
    Скачать бесплатно Demons & Wizards - Touched By The Crimson King
    Demons & Wizards - Touched By The Crimson King скачать торрент
    Demons & Wizards - Touched By The Crimson King смотреть онлайн
    Cкачать фильм Demons & Wizards - Touched By The Crimson King бесплатно
    Demons & Wizards - Touched By The Crimson King скачать торрент в хорошем качестве
    Demons & Wizards - Touched By The Crimson King смотреть онлайн бесплатно в хорошем качестве


    Вы не можете начинать темы
    Вы не можете отвечать на сообщения
    Вы не можете редактировать свои сообщения
    Вы не можете удалять свои сообщения
    Вы не можете голосовать в опросах
    Вы не можете прикреплять файлы к сообщениям
    Вы можете скачивать файлы