Ссылка на приватное зеркало нашего сайта всего за 1$. Внимание количество ограничено!!!

2 сезон

iTunes

1 сезон

1

iTunes

iTunes

iTunes

1 сезон

RePack

30

ИГРА 18+

pack

ВАЖНО

!!Акция!!

Alien_RageХит недели

RePack

MK11
pack

Забери бонус

RePack

jed

!!Акция!!

Alien_Rage

RePack

fifa19

RePack

Assassins Creed: Odyssey

RePack

NEED FOR SPEED™ PAYBACK

4 сезон

9 сезон

Бесстыжие 9 сезон

Все сериалы

все сериалы на PB.wtf

RePack

FAR CRY 5
  

Трудные подростки / Сезон: 1 / Серии: 1-8 из 8 (Рустам Ильясов) [2019, Драма, спорт, WEBRip 720p] pb.wtf

Трудные подростки через торрент pb.wtf

Раздают: 2 [ 0 KB/s ]
Размер: 4.47 GB | Добавлен: 11 мес. назад | Торрент скачан:103 раза
Скачать  

24-10-2019 18:03 Трудные подростки Скачать торрент  

Трудные подростки
Год выпуска: 2019
Страна: Россия
Жанр: Драма, спорт
Продолжительность: ~ 00:25:00 серия
Субтитры: отсутствуют

Режиссер: Рустам Ильясов



В ролях: Никита Волков, Александр Лыков, Григорий Калинин, Вильма Кутавичюте, Виталий Андреев, Глеб Калюжный, Анастасия Крылова, Тимофей Елецкий, Алёна Швиденкова, Владимир Гарцунов, Святослав Рогожан

Описание: Популярный футболист Антон Ковалёв, отсидевший два года в тюрьме за пьяный дебош в кафе, выходит на свободу. Проступок перекрыл успешную карьеру Ковалёва, который ранее был капитаном сборной России. Репутация «сбитого летчика» не позволяет ему продолжить любимое дело и получить престижную работу. Некогда воспитывавший Антона глава центра трудных подростков Герман предлагает ему место в центре, чтобы подготовить непростых ребят к местной Олимпиаде. От безысходности Ковалев соглашается на предложение, но даже не представляет, насколько сложно будет найти общий язык с ребятами и какое важное место они могут занять в его жизни.

Качество: WEBRip 720p
Формат: MKV

Видео: MPEG-4 AVC, ~ 2920 Кбит/с, 1280х720
Аудио: AC3, 2 ch, 192 Кбит/с
скриншот  скриншот  скриншот  скриншот  

Общее
Уникальный идентификатор : 231296353628630593097216575853317038459 (0xAE020EAE5D645BFFE7C2F1380767A17B)
Полное имя : D:\Трудные подростки.(2019).WEBRip (720p).by.Nicodem.Files-x\01.Трудные подростки.(2019).WEBRip (720p).by.Nicodem.Files-x.mkv
Формат : Matroska
Версия формата : Version 4 / Version 2
Размер файла : 587 Мбайт
Продолжительность : 25 м. 51 с.
Общий поток : 3176 Кбит/сек
Программа кодирования : Lavf56.36.100
Библиотека кодирования : Lavf56.36.100 / Lavf56.36.100

Видео
Идентификатор : 1
Формат : AVC
Формат/Информация : Advanced Video Codec
Профиль формата : High@L4.1
Параметр CABAC формата : Да
Параметр RefFrames формата : 5 кадров
Идентификатор кодека : V_MPEG4/ISO/AVC
Продолжительность : 25 м. 51 с.
Битрейт : 2920 Кбит/сек
Ширина : 1280 пикселей
Высота : 720 пикселей
Соотношение сторон : 16:9
Режим частоты кадров : Постоянный
Частота кадров : 25,000 кадров/сек
Цветовое пространство : YUV
Субдискретизация насыщенности : 4:2:0
Битовая глубина : 8 бит
Тип развёртки : Прогрессивная
Бит/(Пиксели*Кадры) : 0.127
Размер потока : 540 Мбайт (92%)
Default : Да
Forced : Нет
Цветовой диапазон : Limited
Основные цвета : BT.709
Характеристики трансфера : BT.709
Коэффициенты матрицы : BT.709

Аудио
Идентификатор : 2
Формат : AC-3
Формат/Информация : Audio Coding 3
Расширение режима : CM (complete main)
Параметр Endianness формата : Big
Идентификатор кодека : A_AC3
Продолжительность : 25 м. 51 с.
Вид битрейта : Постоянный
Битрейт : 192 Кбит/сек
Каналы : 2 канала
Расположение каналов : Front: L R
Частота : 48,0 КГц
Частота кадров : 31,250 кадров/сек (1536 spf)
Метод сжатия : С потерями
Задержка видео : -80 мс.
Размер потока : 35,5 Мбайт (6%)
Язык : unknown
Default : Да
Forced : Нет

Внимание! Раздача ведётся путём добавления новых серий; при каждом добавлении создfётся новый торрент. Чтобы начать докачку новой серии, пользователям необходимо сделать следующее: (1) остановить скачивание, (2) удалить старый торрент у себя из клиента (старые серии удалять не надо), (3) скачать новый торрент и запустить его у себя в клиенте вместо старого, при этом указать клиенту путь в старую папку куда и должно происходить скачивание новых серий.

Ваш клиент при этом должен произвести хеширование (проверку) старой папки (если не производит сам - помогите ему сделать это), и будет докачивать только те серии которых у вас ещё нет. Старые серии при этом не удаляются, а продолжают раздаваться!

Eсли вы уже удалили старые серии, то предотвратить повторную закачку старых серий можно, отжав галочку в соответсвующих местах при запуске нового торрента.
pb.wtf



Скачать Трудные подростки через торрент https://img16.lostpic.net/2019/10/24/85565f8e6c0972eaff7cff97cf9ae2c6.jpg Скачать фильм Трудные подростки через торрент бесплантно в хорошем качестве Описание: Популярный футболист Антон Ковалёв, отсидевший два года в тюрьме за пьяный дебош в кафе, выходит на свободу. Проступок перекрыл ... 10 10 3
Торрент: Зарегистрирован [2019-11-22 05:19] · скачан: 103 раз
Статус: √ проверено
Размер: 4.47 GB
Как cкачать? Как скачать Трудные подростки через торрент | qTorrent

% Раздел Тема Автор DL S | L
Наши сериалы [ 968 MB ] Трудные подростки / Сезон: 2 / Серии: 1-3 из 8 [2020 WEBRip-AVC] bober100 Скачать
3 | 2
Наши сериалы [ 1.94 GB ] Трудные подростки / Сезон: 2 / Серии: 1-3 из 8 [2020 WEBRip 1080p] bober100 Скачать
4 | 2
Наши сериалы [ 900 MB ] Трудные подростки / Сезон: 2 / Серии: 1-3 из 8 [2020 WEBRip] bober100 Скачать
2 | 0
Наши сериалы [ 3.07 GB ] Трудные подростки / Сезон: 1 / Серии: 1-8 из 8 [2019 WEB-DLRip-AVC] bober100 Скачать
2 | 0
Наши сериалы [ 7.22 GB ] Трудные подростки / Сезон: 1 / Серии: 1-8 из 8 [2019 WEB-DL 1080p] bober100 Скачать
1 | 0
Наши сериалы [ 2.35 GB ] Трудные подростки / Сезон: 1 / Серии: 1-8 из 8 [2019 WEB-DLRip] bober100 Скачать
1 | 0

28-11-2019 20:33  

Отключить всю рекламу на сайте

    Дорогой пользователь! Огромная просьба, поблагодарите релизера, оцените раздачу и оставьте свои комментарий, если Вы скачали Трудные подростки через торрент бесплатно! Внесите свою лепту в развитие PiratBit!
    Комментировать посты могут только пользователи прошедшие не сложную регистрацию
    Показать сообщения:    

    Трудные подростки через торрент
    Скачать бесплатно Трудные подростки
    Трудные подростки скачать торрент
    Трудные подростки смотреть онлайн
    Cкачать фильм Трудные подростки бесплатно
    Трудные подростки скачать торрент в хорошем качестве
    Трудные подростки смотреть онлайн бесплатно в хорошем качестве


    Вы не можете начинать темы
    Вы не можете отвечать на сообщения
    Вы не можете редактировать свои сообщения
    Вы не можете удалять свои сообщения
    Вы не можете голосовать в опросах
    Вы не можете прикреплять файлы к сообщениям
    Вы можете скачивать файлы