новый адрес
Мега распродажа FORZA HORIZON 4 ULTIMATE+ВСЕ DLC+ОНЛАЙН всего за 499р. 349 руб. (супер цена). Внимание количество ограничено!!!

iTunes

1+1

iTunes

мы

iTunes

1

iTunes

Чернобыль

iTunes

Ральф против интернета

Лицензия

ПШазам

Лицензия

Оно 2

Лицензия

30
pack

ВАЖНО

!!Акция!!

Alien_RageХит недели

RePack

Resident Evil 21

ИГРА 18+

pack

RePack

Metro:Exodus

!!Акция!!

Alien_Rage

RePack

fifa19

RePack

Assassins Creed: Odyssey

RePack

NEED FOR SPEED™ PAYBACK

3 сезон

9 сезон

Бесстыжие 9 сезон

Все сериалы

все сериалы на PB.wtf

RePack

FAR CRY 5
Ребята, катастрофически не хватает 1900р. для оплаты серверов за Октябрь (всвязи с блокировками трафик упал в 3 раза), 1-2р., выручайте.
  

Ничей (Евгений Татаров) [2019 г., драма, WEB-DLRip, Не требуется Русский "iTunes"] pb.wtf

Ничей через торрент pb.wtf

Раздают: 7 [ 0 KB/s ]
Размер: 705 MB | Добавлен: 27 д. назад | Торрент скачан:72 раза
Скачать  

24-10-2019 18:44 Ничей Скачать торрент  

Ничей
Год выпуска: 2019
Страна: Россия / АТК-Студио
Жанр: драма
Продолжительность: 01:16:42
Перевод: Не требуется Русский (iTunes)

Режиссер: Евгений Татаров

rating

В ролях: Надежда Маркина, Олег Чугунов, Владимир Меньшов, Дарья Юргенс, Галина Бокашевская, Владимир Ямненко, Хельга Филиппова, Сергей Рост, Александр Тютрюмов, Андрей Шимко

Описание: После смерти матери двенадцатилетнего Колю отправляют в детский дом. Оттуда его забирает Валентина. Эта одинокая пожилая женщина - его родная тётя, с которой он прежде не был знаком. Коля ждёт, что старший брат после освобождения из тюрьмы приедет за ним, и они вместе вернутся домой.

Качество: WEB-DLRip
Формат: AVI
Видео кодек: DivX
Аудио кодек: MP3
Видео: 640x272 (2.35:1), 25 fps, DivX Codec 4.x ~1147 kbps avg, 0.26 bit/pixel
Аудио: 48 kHz, MPEG Layer 3, 2 ch, ~128.00 kbps avg
скриншот   скриншот   скриншот   скриншот   скриншот   скриншот   скриншот   скриншот  

Общее
Полное имя : F:\ФИЛЬМЫ\Ничей.2019.WEB-DLRip.avi
Формат : AVI
Формат/Информация : Audio Video Interleave
Размер файла : 705 Мбайт
Продолжительность : 1 ч. 16 м.
Общий поток : 1286 Кбит/сек
Программа кодирования : VirtualDubMod 1.5.10.3 | www.virtualdub-fr.org || (build 2550/release)
Библиотека кодирования : VirtualDubMod build 2550/release

Видео
Идентификатор : 0
Формат : MPEG-4 Visual
Профиль формата : Advanced Simple@L5
Настройки формата : BVOP3 / GMC3 / QPel
Параметр BVOP формата : 3
Параметр QPel формата : Да
Параметр GMC формата : 3 точки перехода
Параметр матрицы формата : Default (MPEG)
Идентификатор кодека : DIVX
Идентификатор кодека/Информация : Project Mayo
Идентификатор кодека/Подсказка : DivX 4
Продолжительность : 1 ч. 16 м.
Битрейт : 1148 Кбит/сек
Ширина : 640 пикселей
Высота : 272 пикселя
Соотношение сторон : 2,35:1
Частота кадров : 25,000 кадров/сек
Цветовое пространство : YUV
Субдискретизация насыщенности : 4:2:0
Битовая глубина : 8 бит
Тип развёртки : Прогрессивная
Метод сжатия : С потерями
Бит/(Пиксели*Кадры) : 0.264
Размер потока : 630 Мбайт (89%)
Библиотека кодирования : XviD 1.2.1 (UTC 2008-12-04)

Аудио
Идентификатор : 1
Формат : MPEG Audio
Версия формата : Version 1
Профиль формата : Layer 3
Настройки формата : Joint stereo / MS Stereo
Идентификатор кодека : 55
Идентификатор кодека/Подсказка : MP3
Продолжительность : 1 ч. 16 м.
Вид битрейта : Постоянный
Битрейт : 128 Кбит/сек
Каналы : 2 канала
Частота : 48,0 КГц
Частота кадров : 41,667 кадра/сек (1152 SPF)
Метод сжатия : С потерями
Размер потока : 70,2 Мбайт (10%)
Выравнивание : Соединение по промежуткам
Продолжительность промежутка : 40 мс. (1,00 видеокадр)
Время предзагрузки промежутка : 504 мс.
Библиотека кодирования : LAME3.99r
Настройки программы : -m j -V 4 -q 2 -lowpass 17 -b 128

pb.wtf



Скачать Ничей через торрент http://pic1.kartinco.top/images/12/wamq2.jpg Скачать фильм Ничей через торрент бесплантно в хорошем качестве Описание: После смерти матери двенадцатилетнего Колю отправляют в детский дом. Оттуда его забирает Валентина. Эта одинокая пожилая женщина ... 7 10 1
Торрент: Зарегистрирован [2019-10-24 18:44] · скачан: 72 раз
Статус: √ проверено
Размер: 705 MB
Как cкачать? Как скачать Ничей через торрент | qTorrent

% Раздел Тема Автор DL S | L
Фильмы с украинским озвучиванием [ 1.46 GB ] Секс и ничего личного [2018 WEB-DLRip] [Украинский] Twi7ter Скачать
1 | 0
Фильмы 2018 [DVDrip, WEB-DLRip, HDrip] (DUB, MVO) [ 745 MB ] 100 вещей и ничего лишнего / 100 Dinge [2018 WEB-DLRip] bober100 Скачать
1 | 0
Фильмы 2018 [DVDrip, WEB-DLRip, HDrip] (DUB, MVO) [ 2.3 GB ] 100 вещей и ничего лишнего / 100 Dinge [2018 WEB-DLRip-AVC] DUB bober100 Скачать
2 | 0
Фильмы (HD 720p, 1080p) (48-60 fps) [ 19.98 GB ] Ничего хорошего в отеле «Эль рояль» / Bad Times at the El Royale [2018 BDRip 1080p 60 fps] sheker187 Скачать
2 | 0
Фильмы 2018 [DVDrip, WEB-DLRip, HDrip] (DUB, MVO) [ 1.46 GB ] Ничего хорошего в отеле «Эль рояль» / Bad Times at the El Royale [2018 BDRip] - [] Twi7ter Скачать
6 | 0
Фильмы [HD 720p, 1080p] (Хороший звук DUB, MVO) [ 15.35 GB ] Ничего хорошего в отеле «Эль рояль» / Bad Times at the El Royale [2018 BDRip 1080p] DUB [] + MVO [HDRezka Studio] + AVO [Яроцкий] sheker187 Скачать
3 | 0
Ultra HD (UHD: 2K, 4K, 8K) — видео сверхвысокой чёткости [ 56.4 GB ] Ничего хорошего в отеле «Эль рояль» / Bad Times at the El Royale [2018 UHD BDRemux 2160p] DUB + MVO + AVO sheker187 Скачать
1 | 0


>> Регистрируемся здесь <<






Отзывы и комментарии о схеме читаем и пишем здесь: ---> Отзывы и комментарии о схеме

Новые благодарочки в телеграм довольных пользователей:
скриншот   скриншот   скриншот   скриншот   скриншот
    Дорогой пользователь! Огромная просьба, поблагодарите релизера, оцените раздачу и оставьте свои комментарий, если Вы скачали Ничей через торрент бесплатно! Внесите свою лепту в развитие PiratBit!
    Комментировать посты могут только пользователи прошедшие не сложную регистрацию
    Показать сообщения:    

    Ничей через торрент
    Скачать бесплатно Ничей
    Ничей скачать торрент
    Ничей смотреть онлайн
    Cкачать фильм Ничей бесплатно
    Ничей скачать торрент в хорошем качестве
    Ничей смотреть онлайн бесплатно в хорошем качестве


    Вы не можете начинать темы
    Вы не можете отвечать на сообщения
    Вы не можете редактировать свои сообщения
    Вы не можете удалять свои сообщения
    Вы не можете голосовать в опросах
    Вы не можете прикреплять файлы к сообщениям
    Вы можете скачивать файлы