Всегда рабочее зеркало без VPN и Proxy просто перед .vidak.icu напиши любое слово или цифру, Пример http://oo03.vidak.icu

Лицензия

MVO

1 сезон

1

1 сезон

iTunes

1 сезон

13

1 сезон

Deluxe

pack

Рекомендуем

Repack

30

ВАЖНО

RePack

MK11

RePack

jed

RePack

fifa19

RePack

RDR2

RePack

NEED FOR SPEED™ PAYBACK

Кинопоиск HD

6 сезон

 Острые козырьки 6 сезон

Все сериалы

все сериалы на PB.wtf

RePack

FAR CRY 5
  
Magnet ссылка

Ангелы Чарли / Charlie's Angels (МакДжи) [2000, Боевик, триллер, комедия, криминал, приключения, UHD BDRip 2160p] DUB [Лицензия] pb.wtf

Ангелы Чарли через торрент pb.wtf

Размер: 22.6 GB | Добавлен: 2 года 9 мес. назад | Торрент скачан:9 раз
Смотреть онлайн Ангелы Чарли | Скачать    Ребята, помогите собрать деньги на оплату серверов!!!

25-10-2019 05:10 Ангелы Чарли Скачать торрент  

Ангелы Чарли / Charlie's Angels
Год выпуска: 2000
Страна: США, Германия
Жанр: Боевик, триллер, комедия, криминал, приключения
Продолжительность: 01:38:23
Перевод: Дублированный | Лицензия
Субтитры: Русские (Forced, full), английские

Режиссер: МакДжи

rating

В ролях: Кэмерон Диас, Дрю Бэрримор, Люси Лью, Билл Мюррей, Сэм Рокуэлл, Келли Линч, Тим Карри, Криспин Гловер, Мэтт ЛеБлан, ЛЛ Кул Джей, Том Грин, Люк Уилсон, Шон Уэйлен, Тим Данауэй, Марк Райан, Бобби Оре, Гай Озери, Джо Дер, Мэттью Фрауман, Реджинальд С. Хэйес, Мелисса МакКарти, Роберт Дж. Стефенсон, Нед Беллами, Рэймонд Паттерсон, Бйорн Флор, Гавен Е. Лукас, Эндрю Уилсон, Брэндон Уильямс Джим Кэллоуэй, Кевин Гревье, Майкл Пападжон, Джим Палмер, Шоун Вудс, Кенни Эндосо, Том Гарнер, Айзек С. Синглтон мл., Пол Элиопулос

Описание: Ангелы Чарли, суперсекретное элитное спецподразделение, которому доверяют только невыполнимые задания. С помощью новейших технологий, современного оружия, боевых искусств и убийственного женского очарования Ангелы Чарли творят чудеса. Но настоящим испытанием станет лишь это последнее задание…

Качество: UHD BDRip 2160p
Формат: MKV

Видео: HEVC HDR, 27.9 Мбит/с, 3840x1600, 23.976 кадр/с, 10 Бит
Аудио#1: 48 kHz, AC3, 5.1, 640 Kbps | Лицензия | RUS |
Аудио#2: 48 kHz, TrueHD, 7.1, 3655 Kbps | Оригинал | ENG |
Аудио#3: 48 kHz, AC3, 5.1, 640 Kbps | Оригинал | ENG |
скриншот  скриншот  скриншот  

скриншот  скриншот  скриншот  

Общее
Уникальный идентификатор : 205707886534544519056784952841096080676 (0x9AC1E5D952E93FA4BE87270FBF372D24)
Полное имя : D:\Передел\Charlies.Angels.2000.2160p.UHD.BDRip.HDR.x265.10bit.Master5.mkv
Формат : Matroska
Версия формата : Version 4
Размер файла : 22,6 Гбайт
Продолжительность : 1 ч. 38 м.
Режим общего битрейта : Переменный
Общий поток : 32,9 Мбит/сек
Название фильма : Charlies.Angels.2000.2160p.UHD.BDRip.HDR.x265.10bit.Master5
Дата кодирования : UTC 2019-10-24 17:46:02
Программа кодирования : mkvmerge v7.9.0 ('Birds') 64bit
Библиотека кодирования : libebml v1.3.1 + libmatroska v1.4.2

Видео
Идентификатор : 1
Формат : HEVC
Формат/Информация : High Efficiency Video Coding
Коммерческое название : HDR10
Профиль формата : Main [email protected]@High
Идентификатор кодека : V_MPEGH/ISO/HEVC
Продолжительность : 1 ч. 38 м.
Битрейт : 27,9 Мбит/сек
Ширина : 3840 пикселей
Высота : 1600 пикселей
Соотношение сторон : 2,40:1
Режим частоты кадров : Постоянный
Частота кадров : 23,976 (24000/1001) кадра/сек
Цветовое пространство : YUV
Субдискретизация насыщенности : 4:2:0 (Type 2)
Битовая глубина : 10 бит
Бит/(Пиксели*Кадры) : 0.189
Размер потока : 19,2 Гбайт (85%)
Заголовок : Charlies.Angels.2000.2160p.UHD.BDRip.HDR.x265.10bit.Master5
Библиотека кодирования : x265 3.1+11-de920e0a3183:[Windows][MSVC 1900][64 bit] 10bit
Настройки программы : cpuid=1176575 / frame-threads=5 / numa-pools=32 / wpp / no-pmode / no-pme / no-psnr / no-ssim / log-level=2 / input-csp=1 / input-res=3840x1600 / interlace=0 / total-frames=141552 / level-idc=51 / high-tier=1 / uhd-bd=0 / ref=4 / no-allow-non-conformance / repeat-headers / annexb / aud / hrd / info / hash=0 / no-temporal-layers / no-open-gop / min-keyint=24 / keyint=240 / gop-lookahead=0 / bframes=4 / b-adapt=2 / b-pyramid / bframe-bias=0 / rc-lookahead=25 / lookahead-slices=4 / scenecut=40 / radl=0 / no-splice / no-intra-refresh / ctu=64 / min-cu-size=8 / rect / no-amp / max-tu-size=32 / tu-inter-depth=1 / tu-intra-depth=1 / limit-tu=0 / rdoq-level=2 / dynamic-rd=0.00 / no-ssim-rd / signhide / no-tskip / nr-intra=0 / nr-inter=0 / no-constrained-intra / no-strong-intra-smoothing / max-merge=3 / limit-refs=3 / limit-modes / me=3 / subme=3 / merange=57 / temporal-mvp / no-hme / weightp / no-weightb / no-analyze-src-pics / deblock=-3:-3 / no-sao / no-sao-non-deblock / rd=4 / no-early-skip / rskip / no-fast-intra / no-tskip-fast / no-cu-lossless / no-b-intra / no-splitrd-skip / rdpenalty=0 / psy-rd=2.00 / psy-rdoq=1.00 / no-rd-refine / no-lossless / cbqpoffs=0 / crqpoffs=0 / rc=crf / crf=17.0 / qcomp=0.60 / qpstep=4 / stats-write=0 / stats-read=0 / vbv-maxrate=160000 / vbv-bufsize=160000 / vbv-init=0.9 / crf-max=0.0 / crf-min=0.0 / ipratio=1.40 / pbratio=1.30 / aq-mode=2 / aq-strength=1.00 / cutree / zone-count=0 / no-strict-cbr / qg-size=32 / no-rc-grain / qpmax=69 / qpmin=0 / no-const-vbv / sar=1 / overscan=0 / videoformat=5 / range=0 / colorprim=9 / transfer=16 / colormatrix=9 / chromaloc=1 / chromaloc-top=2 / chromaloc-bottom=2 / display-window=0 / master-display=G(13250,34500)B(7500,3000)R(34000,16000)WP(15635,16450)L(40000000,50)cll=3991,1021 / min-luma=0 / max-luma=1023 / log2-max-poc-lsb=8 / vui-timing-info / vui-hrd-info / slices=1 / no-opt-qp-pps / no-opt-ref-list-length-pps / no-multi-pass-opt-rps / scenecut-bias=0.05 / no-opt-cu-delta-qp / no-aq-motion / hdr / hdr-opt / no-dhdr10-opt / no-idr-recovery-sei / analysis-reuse-level=5 / scale-factor=0 / refine-intra=0 / refine-inter=0 / refine-mv=0 / refine-ctu-distortion=0 / no-limit-sao / ctu-info=0 / no-lowpass-dct / refine-analysis-type=0 / copy-pic=1 / max-ausize-factor=1.0 / no-dynamic-refine / no-single-sei / no-hevc-aq / no-svt / no-field / qp-adaptation-range=1.00
Default : Да
Forced : Нет
Цветовой диапазон : Limited
Основные цвета : BT.2020
Характеристики трансфера : PQ
Коэффициенты матрицы : BT.2020 non-constant
MasteringDisplay_ColorPrimaries : Display P3
MasteringDisplay_Luminance : min: 0.0050 cd/m2, max: 4000 cd/m2
MaxCLL : 3991 cd/m2
MaxFALL : 1021 cd/m2

Аудио #1
Идентификатор : 2
Формат : AC-3
Формат/Информация : Audio Coding 3
Коммерческое название : Dolby Digital
Идентификатор кодека : A_AC3
Продолжительность : 1 ч. 38 м.
Вид битрейта : Постоянный
Битрейт : 640 Кбит/сек
Каналы : 6 каналов
Channel layout : L R C LFE Ls Rs
Частота : 48,0 КГц
Частота кадров : 31,250 кадров/сек (1536 SPF)
Битовая глубина : 16 бит
Метод сжатия : С потерями
Размер потока : 450 Мбайт (2%)
Заголовок : Dub License
Язык : Russian
ServiceKind/String : Complete Main
Default : Да
Forced : Да

Аудио #2
Идентификатор : 3
Формат : MLP FBA 16-ch
Формат/Информация : Meridian Lossless Packing FBA with 16-channel presentation
Коммерческое название : Dolby TrueHD with Dolby Atmos
Идентификатор кодека : A_TRUEHD
Продолжительность : 1 ч. 38 м.
Вид битрейта : Переменный
Битрейт : 3655 Кбит/сек
Максимальный битрейт : 6054 Кбит/сек
Каналы : 8 каналов
Channel layout : L R C LFE Ls Rs Lb Rb
Частота : 48,0 КГц
Частота кадров : 1200,000 кадров/сек (40 SPF)
Метод сжатия : Без потерь
Размер потока : 2,51 Гбайт (11%)
Заголовок : Original
Язык : English
Default : Нет
Forced : Нет
Number of dynamic objects : 11
Bed channel count : 1 канал
Bed channel configuration : LFE

Аудио #3
Идентификатор : 4
Формат : AC-3
Формат/Информация : Audio Coding 3
Коммерческое название : Dolby Digital
Идентификатор кодека : A_AC3
Продолжительность : 1 ч. 38 м.
Вид битрейта : Постоянный
Битрейт : 640 Кбит/сек
Каналы : 6 каналов
Channel layout : L R C LFE Ls Rs
Частота : 48,0 КГц
Частота кадров : 31,250 кадров/сек (1536 SPF)
Битовая глубина : 16 бит
Метод сжатия : С потерями
Размер потока : 450 Мбайт (2%)
Язык : English
ServiceKind/String : Complete Main
Default : Нет
Forced : Нет

Текст #1
Идентификатор : 5
Формат : UTF-8
Идентификатор кодека : S_TEXT/UTF8
Идентификатор кодека/Информация : UTF-8 Plain Text
Продолжительность : 1 ч. 8 м.
Битрейт : 0 бит/сек
ElementCount : 6
Размер потока : 112 байт (0%)
Заголовок : Forced
Язык : Russian
Default : Да
Forced : Да

Текст #2
Идентификатор : 6
Формат : UTF-8
Идентификатор кодека : S_TEXT/UTF8
Идентификатор кодека/Информация : UTF-8 Plain Text
Продолжительность : 1 ч. 31 м.
Битрейт : 71 бит/сек
ElementCount : 940
Размер потока : 48,1 Кбайт (0%)
Заголовок : Full
Язык : Russian
Default : Нет
Forced : Нет

Текст #3
Идентификатор : 7
Формат : UTF-8
Идентификатор кодека : S_TEXT/UTF8
Идентификатор кодека/Информация : UTF-8 Plain Text
Продолжительность : 1 ч. 31 м.
Битрейт : 38 бит/сек
ElementCount : 880
Размер потока : 25,8 Кбайт (0%)
Заголовок : Full
Язык : English
Default : Нет
Forced : Нет

Меню
00:00:00.000 : en:00:00:00.000
00:06:55.624 : en:00:06:55.624
00:08:17.205 : en:00:08:17.205
00:11:32.525 : en:00:11:32.525
00:15:05.905 : en:00:15:05.905
00:23:14.685 : en:00:23:14.685
00:31:17.250 : en:00:31:17.250
00:37:25.994 : en:00:37:25.994
00:48:38.749 : en:00:48:38.749
00:55:38.919 : en:00:55:38.919
01:00:44.641 : en:01:00:44.641
01:03:02.737 : en:01:03:02.737
01:09:22.992 : en:01:09:22.992
01:15:42.121 : en:01:15:42.121
01:23:08.233 : en:01:23:08.233
01:28:14.956 : en:01:28:14.956

pb.wtf



Скачать Ангелы Чарли через торрент https://img16.lostpic.net/2019/10/23/68646e72801841d0be6a2413c2ceee01.jpg Скачать, смотреть онлайн Ангелы Чарли бесплантно в хорошем качестве Описание: Ангелы Чарли, суперсекретное элитное спецподразделение, которому доверяют только невыполнимые задания. С помощью новейших ... 10 10 6
Info! Золотая раздача, скачанное не засчитывается.
Торрент: Зарегистрирован [2019-10-25 05:10] · скачан: 9 раз
Статус: √ проверено
Размер: 22.6 GB
Как cкачать? Как скачать Ангелы Чарли через торрент | UTorrent

28-11-2019 20:33  

Отключить вcю реклaмy на сайте

    Дорогой пользователь! Огромная просьба, поблагодарите релизера, оцените раздачу и оставьте свои комментарий, если Вы скачали Ангелы Чарли через торрент бесплатно!
    Комментировать посты могут только пользователи прошедшие не сложную регистрацию
    Показать сообщения:    

    Ангелы Чарли через торрент
    Скачать бесплатно Ангелы Чарли
    Ангелы Чарли скачать торрент
    Ангелы Чарли смотреть онлайн
    Cкачать фильм Ангелы Чарли бесплатно
    Ангелы Чарли скачать торрент в хорошем качестве
    Ангелы Чарли смотреть онлайн бесплатно в хорошем качестве


    Вы не можете начинать темы
    Вы не можете отвечать на сообщения
    Вы не можете редактировать свои сообщения
    Вы не можете удалять свои сообщения
    Вы не можете голосовать в опросах
    Вы не можете прикреплять файлы к сообщениям
    Вы можете скачивать файлы